Начать новую тему Ответить на тему
Статистика раздачи
Размер: 347.9 МБ | Добавлен: 26 июн 2020, 20:56 | Скачали: 0
Сидеров: 0  [0 байт/сек]    Личеров: 0  [0 байт/сек]
Пред. тема | След. тема 

Автор
Сообщение

СообщениеДобавлено: 26 июн 2020, 20:56 

Ответить с цитатой 

The Retrosic - Rarities Collection [CD2] / Nightcrawler
Жанр: EBM, Dark Electro
Год выпуска диска: 2006
Производитель диска: Germany
Аудио кодек: FLAC
Тип рипа: tracks+.cue
Битрейт аудио: lossless
Продолжительность: 40:34
Трэклист:
1 - Retrosic, The - Bastard (The Retrosic Version) (4:13)
2 - Retrosic, The - Desperate Youth (Sonic Seducer Version) (4:39)
3 - Retrosic, The - Bloodsport (Extended Version) (5:04)
4 - [:SITD:] - Decoy (7:52)Featuring - Retrosic, The
5 - Eisbrecher - Leider (The Retrosic Mix) (4:59)Remix - Retrosic, The
6 - Umbra Et Imago - Rufen (The Retrosic Mix) (4:43)Remix - Retrosic, The
7 - Dunkelwerk - Bastard (The Retrosic Mix) (4:14)Remix - Retrosic, The
8 - Retrosic, The - Quid Pro Quo (Instrumental) (4:51)
Доп. информация:
Лэйбл: TRIBUNErec.
Catalog#: TRIBUNE_004B
В раздаче второй диск из Retrosic, The - Nightcrawler (Collector's Edition)
CD 1: Nightcrawler
CD 2: Rarities Collection
DVD: Desperate Youth
В раздаче только CD 2.
Первый диск можно скачать здесь Retrosic, The - Nightcrawler - 2006, FLAC (image+.cue), lossless
Тираж ограничен 2000 копиями. Оформление в форме книги в твердой обложке формата A5. Содержит 3 диска и 36-и страничный буклет.
Сканы оформления прилагаются
Код:
Exact Audio Copy V0.99 prebeta 4 from 23. January 2008
EAC extraction logfile from 12. September 2009, 4:24
Various / Rarities Collection [CD2]
Used drive  : Optiarc BD ROM BC-5500A   Adapter: 0  ID: 0
Read mode               : Secure
Utilize accurate stream : Yes
Defeat audio cache      : Yes
Make use of C2 pointers : No
Read offset correction                      : 48
Overread into Lead-In and Lead-Out          : No
Fill up missing offset samples with silence : Yes
Delete leading and trailing silent blocks   : No
Null samples used in CRC calculations       : Yes
Used interface                              : Installed external ASPI interface
Gap handling                                : Appended to previous track
Used output format              : User Defined Encoder
Selected bitrate                : 320 kBit/s
Quality                         : High
Add ID3 tag                     : No
Command line compressor         : C:\Program Files\Exact Audio Copy\FLAC\FLAC.EXE
Additional command line options : -8 -V -T "ARTIST=%a" -T "TITLE=%t" -T "ALBUM=%g" -T "DATE=%y" -T "TRACKNUMBER=%n" -T "GENRE=%m" -T "COMMENT=EAC FLAC -8" %s
TOC of the extracted CD
     Track |   Start  |  Length  | Start sector | End sector
    ---------------------------------------------------------
        1  |  0:00.00 |  4:12.64 |         0    |    18963
        2  |  4:12.64 |  4:39.05 |     18964    |    39893
        3  |  8:51.69 |  5:04.13 |     39894    |    62706
        4  | 13:56.07 |  7:52.21 |     62707    |    98127
        5  | 21:48.28 |  4:59.09 |     98128    |   120561
        6  | 26:47.37 |  4:43.30 |    120562    |   141816
        7  | 31:30.67 |  4:14.20 |    141817    |   160886
        8  | 35:45.12 |  4:51.32 |    160887    |   182743
Track  1
     Filename E:\Various Artists - Rarities Collection [CD2] (2006) [FLAC]\01 - The Retrosic - Bastard (The Retrosic Version).wav
     Pre-gap length  0:00:02.00
     Peak level 98.8 %
     Track quality 100.0 %
     Test CRC D1322201
     Copy CRC D1322201
     Track not present in AccurateRip database
     Copy OK
Track  2
     Filename E:\Various Artists - Rarities Collection [CD2] (2006) [FLAC]\02 - The Retrosic - Desperate Youth (Sonic Seducer Version).wav
     Peak level 98.8 %
     Track quality 100.0 %
     Test CRC C82B21D1
     Copy CRC C82B21D1
     Track not present in AccurateRip database
     Copy OK
Track  3
     Filename E:\Various Artists - Rarities Collection [CD2] (2006) [FLAC]\03 - The Retrosic - Bloodsport (Extended Version).wav
     Peak level 98.8 %
     Track quality 99.9 %
     Test CRC B7B92E0D
     Copy CRC B7B92E0D
     Track not present in AccurateRip database
     Copy OK
Track  4
     Filename E:\Various Artists - Rarities Collection [CD2] (2006) [FLAC]\04 - [SITD] - Decoy.wav
     Peak level 98.8 %
     Track quality 100.0 %
     Test CRC B7F7C3D8
     Copy CRC B7F7C3D8
     Track not present in AccurateRip database
     Copy OK
Track  5
     Filename E:\Various Artists - Rarities Collection [CD2] (2006) [FLAC]\05 - Eisbrecher - Leider (The Retrosic Mix).wav
     Peak level 99.8 %
     Track quality 100.0 %
     Test CRC EB1DEBC7
     Copy CRC EB1DEBC7
     Track not present in AccurateRip database
     Copy OK
Track  6
     Filename E:\Various Artists - Rarities Collection [CD2] (2006) [FLAC]\06 - Umbra Et Imago - Rufen (The Retrosic Mix).wav
     Peak level 98.8 %
     Track quality 100.0 %
     Test CRC D1B29A40
     Copy CRC D1B29A40
     Track not present in AccurateRip database
     Copy OK
Track  7
     Filename E:\Various Artists - Rarities Collection [CD2] (2006) [FLAC]\07 - Dunkelwerk - Bastard (The Retrosic Mix).wav
     Peak level 98.8 %
     Track quality 100.0 %
     Test CRC 16F9CF82
     Copy CRC 16F9CF82
     Track not present in AccurateRip database
     Copy OK
Track  8
     Filename E:\Various Artists - Rarities Collection [CD2] (2006) [FLAC]\08 - The Retrosic - Quid Pro Quo (Instrumental).wav
     Peak level 98.8 %
     Track quality 100.0 %
     Test CRC 1AAB4A56
     Copy CRC 1AAB4A56
     Track not present in AccurateRip database
     Copy OK
None of the tracks are present in the AccurateRip database
No errors occurred
End of status report
Правила, инструкции, FAQ!!!
Торрент  Добавлен [26 июн 2020, 20:56] Скачать торрент Магнет ссылка
Скачать торрент
[ Размер 15.87 КБ / Просмотров 7 ]

Статус
Проверен 
 
Размер  347.9 МБ
Приватный: Нет (DHT включён)
.torrent скачан  0
 


     Отправить личное сообщение
   
Страница 1 из 1
Показать сообщения за:  Поле сортировки  
Начать новую тему Ответить на тему


Сейчас этот форум просматривают: нет зарегистрированных пользователей и гости: 0


Вы не можете начинать темы
Вы не можете отвечать на сообщения
Вы не можете редактировать свои сообщения
Вы не можете удалять свои сообщения
Вы не можете добавлять вложения

Перейти:  
cron