Начать новую тему Ответить на тему
Статистика раздачи
Размер: 265.23 МБ | Добавлен: 26 июн 2020, 17:26 | Скачали: 0
Сидеров: 0  [0 байт/сек]    Личеров: 0  [0 байт/сек]
Пред. тема | След. тема 

Автор
Сообщение

СообщениеДобавлено: 26 июн 2020, 17:26 

Ответить с цитатой 

Wumpscut - Wreath Of Barbs (Freestyle Remixes) (CDM)
Жанр: EBM / Dark Electro / Tech-Industrial
Год выпуска диска: 2002
Производитель диска: Germany
Аудио кодек: APE
Тип рипа: image+.cue
Битрейт аудио: lossless
Продолжительность: 41:43
Трэклист:
1 Wreath Of Barbs (Radio Mix) (4:07)
2 Wreath Of Barbs (Der Blutharsch Remix) (3:14) Remix - Der Blutharsch
3 Wreath Of Barbs (Press To Transmit Remix 1) (5:21) Remix - Press To Transmit
4 Wreath Of Barbs (Press To Transmit Remix 2) (4:00) Remix - Press To Transmit
5 Wreath Of Barbs (F/A/V Remix) (4:02) Remix - F/A/V
6 Wreath Of Barbs (Anaesth Remix) (5:08) Remix - Anaesth
7 Wreath Of Barbs (Decomposed Remix) (4:48)
8 Wreath Of Barbs (Contest Winner Remix: dismantled.org) (5:35) Remix - Dismantled
9 Wreath Of Barbs (Contest Winner Remix: Overflow-110) (5:21) Remix - Overflow-110
Доп. информация: Beton Kopf Media; bkm etah 19b
Код:
Exact Audio Copy V0.99 prebeta 3 from 28. July 2007
Отчёт EAC об извлечении, выполненном 15. ноября 2008, 22:28
:Wumpscut: / Wreath Of Barbs (Freestyle Remixes)
Дисковод: TEAC    CD-W540E   Adapter: 0  ID: 1
Режим чтения                 : Достоверность
Использование точного потока : Да
Отключение кэша аудио        : Да
Использование указателей C2  : Нет
Коррекция смещения при чтении                     : 686
Способность читать области Lead-in и Lead-out     : Нет
Заполнение пропущенных сэмплов тишиной            : Да
Удаление блоков с тишиной в начале и конце        : Нет
При вычислениях CRC использовались нулевые сэмплы : Да
Интерфейс                                         : Встроенный Win32-интерфейс для Win NT/2000
Выходной формат : Внутренние WAV-операции
Формат сэмплов  : 44.100 Гц; 16 бит; стерео
TOC извлечённого CD
     Трек |   Старт  | Длительность | Начальный сектор | Конечный сектор
    ---------------------------------------------------------------------
       1  |  0:00.00 |    4:07.74   |           0      |      18598
       2  |  4:07.74 |    3:14.37   |       18599      |      33185
       3  |  7:22.36 |    5:21.38   |       33186      |      57298
       4  | 12:43.74 |    4:00.74   |       57299      |      75372
       5  | 16:44.73 |    4:02.42   |       75373      |      93564
       6  | 20:47.40 |    5:08.56   |       93565      |     116720
       7  | 25:56.21 |    4:48.02   |      116721      |     138322
       8  | 30:44.23 |    5:35.41   |      138323      |     163488
       9  | 36:19.64 |    5:21.07   |      163489      |     187570
Характеристики диапазона извлечения и сообщения об ошибках
Выбранный диапазон
     Имя файла K:\TORRENTS_НА_РАЗДАЧУ_НОВЫЕ\Wumpscut - Wreath Of Barbs (Freestyle Remixes) CD5\CDImage.wav
     Пиковый уровень 99.9 %
     Качество диапазона 100.0 %
     CRC теста 1CD30724
     CRC копии 1CD30724
     Копирование... OK
Ошибок не произошло
Конец отчёта
Код:
AUDIOCHECKER v2.0 beta (build 457) - by Dester - opdester@freemail.hu
~~~~~~~~~~~~~~~~~~~~~~~~~~~~~~~~~~
-----------------------------------------------------------
Started at: воскресенье, 16. 11. 2008. - 0:23.16
1 file found
1 -===- K:\TORRENTS_НА_РАЗДАЧУ_НОВЫЕ\Wumpscut - Wreath Of Barbs (Freestyle Remixes) CD5\CDImage.wav
  Conclusion: this track is CDDA with probability 100%
Finished at: воскресенье, 16. 11. 2008. - 0:25.30 (operation time: 0:02.14)
Правила, инструкции, FAQ!!!
Торрент  Добавлен [26 июн 2020, 17:26] Скачать торрент Магнет ссылка
Скачать торрент
[ Размер 11.05 КБ / Просмотров 10 ]

Статус
Проверен 
 
Размер  265.23 МБ
Приватный: Нет (DHT включён)
.torrent скачан  0
 


     Отправить личное сообщение
   
Страница 1 из 1
Показать сообщения за:  Поле сортировки  
Начать новую тему Ответить на тему


Сейчас этот форум просматривают: нет зарегистрированных пользователей и гости: 0


Вы не можете начинать темы
Вы не можете отвечать на сообщения
Вы не можете редактировать свои сообщения
Вы не можете удалять свои сообщения
Вы не можете добавлять вложения

Перейти:  
cron