Начать новую тему Ответить на тему
Статистика раздачи
Размер: 284.71 МБ | Добавлен: 26 июн 2020, 17:26 | Скачали: 0
Сидеров: 0  [0 байт/сек]    Личеров: 0  [0 байт/сек]
Пред. тема | След. тема 

Автор
Сообщение

СообщениеДобавлено: 26 июн 2020, 17:26 

Ответить с цитатой 

Wumpscut - Wreath Of Barbs (Classic Remixes) (CDM)
Жанр: EBM / Dark Electro / Tech-Industrial
Год выпуска диска: 2002
Производитель диска: Germany
Аудио кодек: APE
Тип рипа: image+.cue
Битрейт аудио: lossless
Продолжительность: 41:51
Трэклист:
1 Wreath Of Barbs (Radio Mix) (4:08)
2 Wreath Of Barbs (Heavy Extended Mix) (8:50)
3 Wreath Of Barbs (Der Blutrausch Remix) (4:32) Remix - Der Blutrausch
4 Wreath Of Barbs (Neuroticfish Remix 1) (3:42) Remix - Neuroticfish
5 Wreath Of Barbs (Neuroticfish Remix 2) (5:11) Remix - Neuroticfish
6 Wreath Of Barbs (B-Ton-K Remix) (5:26) Remix - B-Ton-K
7 Wreath Of Barbs (Contest Winner Remix: Gray/Scale) (4:51) Remix - Gray/scale
8 Wreath Of Barbs (Contest Winner Remix: r@zorbla.de) (5:06) Remix - r@zorbla.de
Доп. информация: Beton Kopf Media; bkm etah 19a
Код:
Exact Audio Copy V0.99 prebeta 3 from 28. July 2007
Отчёт EAC об извлечении, выполненном 15. ноября 2008, 22:13
:Wumpscut: / Wreath Of Barbs (classic remixes)
Дисковод: PIONEER DVD-RW  DVR-215D   Adapter: 5  ID: 0
Режим чтения                 : Достоверность
Использование точного потока : Да
Отключение кэша аудио        : Да
Использование указателей C2  : Нет
Коррекция смещения при чтении                     : 48
Способность читать области Lead-in и Lead-out     : Нет
Заполнение пропущенных сэмплов тишиной            : Да
Удаление блоков с тишиной в начале и конце        : Нет
При вычислениях CRC использовались нулевые сэмплы : Да
Интерфейс                                         : Встроенный Win32-интерфейс для Win NT/2000
Выходной формат : Внутренние WAV-операции
Формат сэмплов  : 44.100 Гц; 16 бит; стерео
TOC извлечённого CD
     Трек |   Старт  | Длительность | Начальный сектор | Конечный сектор
    ---------------------------------------------------------------------
       1  |  0:00.00 |    4:08.03   |           0      |      18602
       2  |  4:08.03 |    8:50.31   |       18603      |      58383
       3  | 12:58.34 |    4:32.18   |       58384      |      78801
       4  | 17:30.52 |    3:42.45   |       78802      |      95496
       5  | 21:13.22 |    5:11.54   |       95497      |     118875
       6  | 26:25.01 |    5:26.50   |      118876      |     143375
       7  | 31:51.51 |    4:51.50   |      143376      |     165250
       8  | 36:43.26 |    5:06.18   |      165251      |     188218
Характеристики диапазона извлечения и сообщения об ошибках
Выбранный диапазон
     Имя файла K:\TORRENTS_НА_РАЗДАЧУ_НОВЫЕ\Wumpscut - Wreath Of Barbs (classic remixes) CD5\CDImage.wav
     Пиковый уровень 100.0 %
     Качество диапазона 100.0 %
     CRC теста AD9BC3BA
     CRC копии AD9BC3BA
     Копирование... OK
Ошибок не произошло
Конец отчёта
Код:
AUDIOCHECKER v2.0 beta (build 457) - by Dester - opdester@freemail.hu
~~~~~~~~~~~~~~~~~~~~~~~~~~~~~~~~~~
-----------------------------------------------------------
Started at: воскресенье, 16. 11. 2008. - 0:20.26
1 file found
1 -===- K:\TORRENTS_НА_РАЗДАЧУ_НОВЫЕ\Wumpscut - Wreath Of Barbs (Classic Remixes) CD5\CDImage.wav
  Conclusion: this track is CDDA with probability 100%
Finished at: воскресенье, 16. 11. 2008. - 0:22.37 (operation time: 0:02.10)
Правила, инструкции, FAQ!!!
Торрент  Добавлен [26 июн 2020, 17:26] Скачать торрент Магнет ссылка
Скачать торрент
[ Размер 11.81 КБ / Просмотров 9 ]

Статус
Проверен 
 
Размер  284.71 МБ
Приватный: Нет (DHT включён)
.torrent скачан  0
 


     Отправить личное сообщение
   
Страница 1 из 1
Показать сообщения за:  Поле сортировки  
Начать новую тему Ответить на тему


Сейчас этот форум просматривают: нет зарегистрированных пользователей и гости: 0


Вы не можете начинать темы
Вы не можете отвечать на сообщения
Вы не можете редактировать свои сообщения
Вы не можете удалять свои сообщения
Вы не можете добавлять вложения

Перейти:  
cron