Начать новую тему Ответить на тему
Статистика раздачи
Размер: 303.39 МБ | Добавлен: 26 июн 2020, 17:58 | Скачали: 0
Сидеров: 0  [0 байт/сек]    Личеров: 0  [0 байт/сек]
Пред. тема | След. тема 

Автор
Сообщение

СообщениеДобавлено: 26 июн 2020, 17:58 

Ответить с цитатой 

Run Level Zero - And Thus We Walked.. EP
Жанр: EBM, Dark Electro
Год выпуска диска: 2004
Производитель диска: Швеция
Аудио кодек: FLAC
Тип рипа: image+.cue
Битрейт аудио: lossless
Продолжительность: 34:38.71
Трэклист:
01. Short Cuts (Club Mix)
02. Under The Gun (Cal.50 Remix By X-Fusion)
03. Headless (Rotersand's Downsized Rework)
04. Tell-Tale Art
05. Generic Warmth
06. CNN Of Worms (Remixed By Interlace)
07. Short Cuts
08. Flesh Reflections (Mirrored By F. Solenberg)
Exact Audio Copy V0.99 prebeta 4 from 23. January 2008
Отчёт EAC об извлечении, выполненном 14. октября 2008, 22:23
Run Level Zero / And Thus We Walked..
Дисковод: PIONEER DVD-RW DVR-111D Adapter: 0 ID: 0
Режим чтения : Достоверность
Использование точного потока : Да
Отключение кэша аудио : Да
Использование указателей C2 : Нет
Коррекция смещения при чтении : 48
Способность читать области Lead-in и Lead-out : Нет
Заполнение пропущенных сэмплов тишиной : Да
Удаление блоков с тишиной в начале и конце : Нет
При вычислениях CRC использовались нулевые сэмплы : Да
Интерфейс : Встроенный Win32-интерфейс для Win NT/2000
Выходной формат : Пользовательский кодировщик
Выбранный битрейт : 1024 kBit/s
Качество : Высокий
Добавление ID3-тэга : Нет
Утилита сжатия : C:\Program Files\Exact Audio Copy\FLAC\FLAC.EXE
Дополнительные параметры : -8 -V -T "ARTIST=%a" -T "TITLE=%t" -T "ALBUM=%g" -T "DATE=%y" -T "TRACKNUMBER=%n" -T "GENRE=%m" -T "COMMENT=%e" %s -o %d
TOC извлечённого CD
Трек | Старт | Длительность | Начальный сектор | Конечный сектор
---------------------------------------------------------------------
1 | 0:00.00 | 4:40.07 | 0 | 21006
2 | 4:40.07 | 4:51.27 | 21007 | 42858
3 | 9:31.34 | 5:43.74 | 42859 | 68657
4 | 15:15.33 | 4:13.02 | 68658 | 87634
5 | 19:28.35 | 4:19.53 | 87635 | 107112
6 | 23:48.13 | 4:22.24 | 107113 | 126786
7 | 28:10.37 | 6:28.34 | 126787 | 155920
8 | 34:38.71 | 5:15.48 | 155921 | 179593
Характеристики диапазона извлечения и сообщения об ошибках
Выбранный диапазон
Имя файла C:\Run Level Zero - And Thus We Walked.. [2004]\Run Level Zero - And Thus We Walked...wav
Пиковый уровень 98.8 %
Качество диапазона 100.0 %
CRC теста EE92F8EC
CRC копии EE92F8EC
Копирование... OK
Ошибок не произошло
AccurateRip: сводка
Трек 1 нет в базе данных
Трек 2 нет в базе данных
Трек 3 нет в базе данных
Трек 4 нет в базе данных
Трек 5 нет в базе данных
Трек 6 нет в базе данных
Трек 7 нет в базе данных
Трек 8 нет в базе данных
Ни одного трека нет в базе AccurateRip
Конец отчёта
AUDIOCHECKER v2.0 beta (build 457) - by Dester - opdester@freemail.hu
~~~~~~~~~~~~~~~~~~~~~~~~~~~~~~~~~~
-=== DO NOT EDIT THIS FILE! ===-
Path: ...\Run Level Zero - And Thus We Walked.. [2004]
1 -=- Run Level Zero - And Thus We Walked...flac -=- CDDA (100%)
14949684
Доп. информация: Шведская dark-ЕВМ группа Run Level Zero основана в январе 1999 года Хансом Акерманом и Фредриком Соленбергом. К тому моменту музыканты уже 4 года работали вместе, и Run Level Zero был далеко не первым их проектом. Однако имено этот их проект оказался самым успешным. Уже первый альбом Run Level Zero - Symbol Of Submission – обеспечил музыкантам победу в номинации "Лучшая новая группа" на церемонии награждения альтернативных музыкантов Швеции SAMA-2002. Однако столь резвый старт музыкантов ничуть не смутил – они продолжали плодотворно работать над новым материалом. Осенью 2006 года группа совершила свой первый европейский гастрольный тур, по результатам которого была выпущена ЕР And Thus We Walked, в которую вошли как фрагменты европейских концертов, так и несколько совершенно новых песен. Сейчас Run Level Zero даёт концерты по всему миру. На своих концертах группа умело сочетает звучание “живых” барабанов и электронных сэмплов.
Источник http://www.a1tv.ru/?id=39324
Правила, инструкции, FAQ!!!
Торрент  Добавлен [26 июн 2020, 17:58] Скачать торрент Магнет ссылка
Скачать торрент
[ Размер 12.57 КБ / Просмотров 7 ]

Статус
Проверен 
 
Размер  303.39 МБ
Приватный: Нет (DHT включён)
.torrent скачан  0
 


     Отправить личное сообщение
   
Страница 1 из 1
Показать сообщения за:  Поле сортировки  
Начать новую тему Ответить на тему


Сейчас этот форум просматривают: нет зарегистрированных пользователей и гости: 0


Вы не можете начинать темы
Вы не можете отвечать на сообщения
Вы не можете редактировать свои сообщения
Вы не можете удалять свои сообщения
Вы не можете добавлять вложения

Перейти:  
cron