Начать новую тему Ответить на тему
Статистика раздачи
Размер: 397.8 МБ | Добавлен: 26 июн 2020, 17:25 | Скачали: 0
Сидеров: 0  [0 байт/сек]    Личеров: 0  [0 байт/сек]
Пред. тема | След. тема 

Автор
Сообщение

СообщениеДобавлено: 26 июн 2020, 17:25 

Ответить с цитатой 

Panic Lift-Witness To Our Collapse
Жанр: EBM, Dark electro
Год выпуска диска: 2008
Производитель диска: США
Аудио кодек: FLAC
Тип рипа: tracks+.cue
Битрейт аудио: lossless
Трэклист:
01 Prologue (0:17)
02 Everything I Have (3:38)
03 Failsafe (4:17)
04 Hold On (5:03)Engineer [Vocals] - Jim DeSalvo
05 Shelter (4:43)Mixed By - Chris Reject
06 Witness To Our Collapse (3:55)
07 Remnants Of A Dead Age (5:01)
08 No Trace To Love (5:20)
09 Seasons Change (4:08)
10 Dawn Of Fate (4:58)
11 Save Yourself (5:08)Mixed By - Chris Reject
12 Butterfly Wings (My Only Hope) (8:10)Engineer [Vocals] - Jim DeSalvo

Код:
Exact Audio Copy V0.99 prebeta 4 from 23. January 2008
EAC extraction logfile from 16. August 2008, 22:14
Panic Lift / Witness To Our Collapse
Used drive  : LITE-ON DVDRW SHW-1635S   Adapter: 1  ID: 0
Read mode               : Secure
Utilize accurate stream : Yes
Defeat audio cache      : Yes
Make use of C2 pointers : Yes
Read offset correction                      : 6
Overread into Lead-In and Lead-Out          : No
Fill up missing offset samples with silence : Yes
Delete leading and trailing silent blocks   : No
Null samples used in CRC calculations       : Yes
Used interface                              : Native Win32 interface for Win NT & 2000
Gap handling                                : Appended to previous track
Used output format              : User Defined Encoder
Selected bitrate                : 192 kBit/s
Quality                         : High
Add ID3 tag                     : No
Command line compressor         : C:\Program Files\Exact Audio Copy\Flac\flac.exe
Additional command line options : -8 -A tukey(0.25) -A gauss(0.1875) -b 4096 -V -T "artist=%a" -T "title=%t" -T "album=%g" -T "date=%y" -T "tracknumber=%n" -T "genre=%m" %s
TOC of the extracted CD
     Track |   Start  |  Length  | Start sector | End sector
    ---------------------------------------------------------
        1  |  0:00.00 |  0:16.70 |         0    |     1269
        2  |  0:16.70 |  3:37.54 |      1270    |    17598
        3  |  3:54.49 |  4:16.60 |     17599    |    36858
        4  |  8:11.34 |  5:02.74 |     36859    |    59582
        5  | 13:14.33 |  4:42.47 |     59583    |    80779
        6  | 17:57.05 |  3:54.72 |     80780    |    98401
        7  | 21:52.02 |  5:01.10 |     98402    |   120986
        8  | 26:53.12 |  5:19.68 |    120987    |   144979
        9  | 32:13.05 |  4:08.00 |    144980    |   163579
       10  | 36:21.05 |  4:57.60 |    163580    |   185914
       11  | 41:18.65 |  5:08.08 |    185915    |   209022
       12  | 46:26.73 |  8:09.66 |    209023    |   245763
Track  1
     Filename M:\P\Panic Lift\Panic_Lift-Witness_To_Our_Collapse-2008-FLAC\01 - Panic Lift - Prologue.wav
     Pre-gap length  0:00:02.00
     Peak level 33.1 %
     Track quality 100.0 %
     Test CRC EA6B0E3A
     Copy CRC EA6B0E3A
     Copy OK
Track  2
     Filename M:\P\Panic Lift\Panic_Lift-Witness_To_Our_Collapse-2008-FLAC\02 - Panic Lift - Everything I Have.wav
     Peak level 100.0 %
     Track quality 100.0 %
     Test CRC A0AA7D46
     Copy CRC A0AA7D46
     Copy OK
Track  3
     Filename M:\P\Panic Lift\Panic_Lift-Witness_To_Our_Collapse-2008-FLAC\03 - Panic Lift - Failsafe.wav
     Peak level 100.0 %
     Track quality 100.0 %
     Test CRC 08F46BE9
     Copy CRC 08F46BE9
     Copy OK
Track  4
     Filename M:\P\Panic Lift\Panic_Lift-Witness_To_Our_Collapse-2008-FLAC\04 - Panic Lift - Hold On.wav
     Peak level 100.0 %
     Track quality 100.0 %
     Test CRC 44D91D32
     Copy CRC 44D91D32
     Copy OK
Track  5
     Filename M:\P\Panic Lift\Panic_Lift-Witness_To_Our_Collapse-2008-FLAC\05 - Panic Lift - Shelter.wav
     Peak level 100.0 %
     Track quality 100.0 %
     Test CRC 79015C10
     Copy CRC 79015C10
     Copy OK
Track  6
     Filename M:\P\Panic Lift\Panic_Lift-Witness_To_Our_Collapse-2008-FLAC\06 - Panic Lift - Witness To Our Collapse.wav
     Peak level 100.0 %
     Track quality 100.0 %
     Test CRC 1058789E
     Copy CRC 1058789E
     Copy OK
Track  7
     Filename M:\P\Panic Lift\Panic_Lift-Witness_To_Our_Collapse-2008-FLAC\07 - Panic Lift - Remnants Of A Dead Age.wav
     Peak level 100.0 %
     Track quality 100.0 %
     Test CRC 18BA72F0
     Copy CRC 18BA72F0
     Copy OK
Track  8
     Filename M:\P\Panic Lift\Panic_Lift-Witness_To_Our_Collapse-2008-FLAC\08 - Panic Lift - No Trace To Love.wav
     Peak level 100.0 %
     Track quality 100.0 %
     Test CRC 899B36C7
     Copy CRC 899B36C7
     Copy OK
Track  9
     Filename M:\P\Panic Lift\Panic_Lift-Witness_To_Our_Collapse-2008-FLAC\09 - Panic Lift - Seasons Change.wav
     Peak level 99.9 %
     Track quality 99.9 %
     Test CRC A5904527
     Copy CRC A5904527
     Copy OK
Track 10
     Filename M:\P\Panic Lift\Panic_Lift-Witness_To_Our_Collapse-2008-FLAC\10 - Panic Lift - Dawn Of Fate.wav
     Peak level 100.0 %
     Track quality 100.0 %
     Test CRC F28B2C99
     Copy CRC F28B2C99
     Copy OK
Track 11
     Filename M:\P\Panic Lift\Panic_Lift-Witness_To_Our_Collapse-2008-FLAC\11 - Panic Lift - Save Yourself.wav
     Peak level 100.0 %
     Track quality 100.0 %
     Test CRC E172CDF8
     Copy CRC E172CDF8
     Copy OK
Track 12
     Filename M:\P\Panic Lift\Panic_Lift-Witness_To_Our_Collapse-2008-FLAC\12 - Panic Lift - Butterfly Wings [My Only Hope].wav
     Peak level 94.7 %
     Track quality 99.9 %
     Test CRC AB26E3B9
     Copy CRC AB26E3B9
     Copy OK
No errors occurred
End of status report

HQ SCANS внутри!!!!
Очевидно, что очень тяжело живется людям в Северной Америке, если им по большому счету нет дела до романтического синтпопа, но группы, играющие dark electro или, как сейчас модно называть, harsh EBM, появляются как грибы после дождя. Вот и очередной представитель из этого семейства под названием Panic Lift.
Для дебюта получилось все очень даже неплохо, в грязь лицом группа явно не уронилась, ибо "Witness To Our Collapse" полностью соответствует всем канонам жанра и выполнен в лучших традициях Dawn Of Ashes, Die Sektor, Nurzery Rhymes. Ко всему прочему, Panic Lift экспериментирует, и мы слышим на диске обычный, не пропущенный через всякие звуковые примочки, вокал. Но такого здесь присутствует немного, основная масса будет привычна для любителя данной стилистики. Если сказать в целом, то очень бодрый, если это слово можно применить к dark electro, альбом. Несомненно, здесь присутствует большой выбор композиций, достойных для клубной ротации. Еще один плюс: после прослушивания альбома не остается ощущения однообразия и повторения уже давно пройденного материала, по крайней мере, мне так показалось.
Рассматривая внимательно пластинку, через микроскоп и отдельно по композициям, следует выделить, а выделять тут можно много, несколько наиболее "пилотных" треков. Безусловный лидер - "Hold On" с несвойственным для стиля неискаженным вокалом. Далее еще пара отличных вещей - "Remnants Of A Dead Age" и "No Trace To Love", которые представляют собой достойное продолжение дела ужасных мексиканцев Hocico.
Не оскудевает dark electro нива в мире, и нам остается только пожинать плоды творчества все новых и новых музыкальных образований. В этот раз мы имеем весьма качественный продукт!
Правила, инструкции, FAQ!!!
Торрент  Добавлен [26 июн 2020, 17:25] Скачать торрент Магнет ссылка
Скачать торрент
[ Размер 17.41 КБ / Просмотров 6 ]

Статус
Проверен 
 
Размер  397.8 МБ
Приватный: Нет (DHT включён)
.torrent скачан  0
 


     Отправить личное сообщение
   
Страница 1 из 1
Показать сообщения за:  Поле сортировки  
Начать новую тему Ответить на тему


Сейчас этот форум просматривают: нет зарегистрированных пользователей и гости: 0


Вы не можете начинать темы
Вы не можете отвечать на сообщения
Вы не можете редактировать свои сообщения
Вы не можете удалять свои сообщения
Вы не можете добавлять вложения

Перейти:  
cron