Начать новую тему Ответить на тему
Статистика раздачи
Размер: 436.94 МБ | Добавлен: 26 июн 2020, 19:14 | Скачали: 0
Сидеров: 0  [0 байт/сек]    Личеров: 0  [0 байт/сек]
Пред. тема | След. тема 

Автор
Сообщение

СообщениеДобавлено: 26 июн 2020, 19:14 

Ответить с цитатой 

C-Lekktor
X-Tension In Progress

Жанр: EBM / Dark Electro
Страна-производитель диска: Germany
Год издания: 2012
Издатель (лейбл): COP Internacional
Номер по каталогу: COP CD 132
Страна: Mexico
Аудиокодек: FLAC (*.flac)
Тип рипа: image+.cue
Битрейт аудио: lossless
Продолжительность: 57:15:75
Источник (релизер): Физический носитель (Собственный рип с оригинального CD).
Наличие сканов в содержимом раздачи: нет
Треклист:
01. Plug In
02. Hellektro Convulsion Therapy
03. Alteracion
04. Dark Reflection
05. El Comienzo De La Muerte
06. In Memorian
07. X-Tension In Progress
08. Wrecked
09. Sick Of You
10. Welcome To My World
11. Trastorno
12. In The Other Life
13. Hardbeat [Mu]-Sickk
Код:
Отчёт EAC об извлечении, выполненном 9. апреля 2012, 21:06
C-Lekktor / X-Tension In Progress
Дисковод: TSSTcorpCDDVDW TS-L633C   Adapter: 0  ID: 0
Режим чтения                 : Достоверность
Использование точного потока : Да
Отключение кэша аудио        : Да
Использование указателей C2  : Нет
Коррекция смещения при чтении                     : 6
Способность читать области Lead-in и Lead-out     : Нет
Заполнение пропущенных сэмплов тишиной            : Да
Удаление блоков с тишиной в начале и конце        : Нет
При вычислениях CRC использовались нулевые сэмплы : Да
Интерфейс                                         : Встроенный Win32-интерфейс для Win NT/2000
Выходной формат          : Пользовательский кодировщик
Выбранный битрейт        : 128 kBit/s
Качество                 : Высокий
Добавление ID3-тега      : Нет
Утилита сжатия           : C:\Program Files\FLAC\flac.exe
Дополнительные параметры : -V -8 -T "Date=%year%" -T "Genre=%genre%" %source%
TOC извлечённого CD
     Трек |   Старт  | Длительность | Начальный сектор | Конечный сектор
    ---------------------------------------------------------------------
       1  |  0:00.00 |    2:00.49   |           0      |       9048
       2  |  2:00.49 |    4:09.57   |        9049      |      27780
       3  |  6:10.31 |    4:25.61   |       27781      |      47716
       4  | 10:36.17 |    4:18.05   |       47717      |      67071
       5  | 14:54.22 |    4:14.28   |       67072      |      86149
       6  | 19:08.50 |    5:00.48   |       86150      |     108697
       7  | 24:09.23 |    4:09.22   |      108698      |     127394
       8  | 28:18.45 |    4:41.42   |      127395      |     148511
       9  | 33:00.12 |    5:11.59   |      148512      |     171895
      10  | 38:11.71 |    4:43.50   |      171896      |     193170
      11  | 42:55.46 |    5:27.41   |      193171      |     217736
      12  | 48:23.12 |    4:06.73   |      217737      |     236259
      13  | 52:30.10 |    4:45.65   |      236260      |     257699
Характеристики диапазона извлечения и сообщения об ошибках
Выбранный диапазон
     Имя файла C:\Users\SODOM\Desktop\C-Lekktor - X-Tension In Progress.wav
     Пиковый уровень 100.0 %
     Скорость извлечения 3.7 X
     Качество диапазона 100.0 %
     CRC теста EFFE787F
     CRC копии EFFE787F
     Копирование... OK
Ошибок не произошло
Конец отчёта
---- CUETools DB Plugin V2.1.3
[CTDB TOCID: ZNmK7BLkt0UjgPsM.fFr9MeQ4dE-] found, Submit result: already submitted
[06deb0a4] (1/1) Accurately ripped
==== Контрольная сумма отчёта 8489167B7E7F620FA6A29BA867BF0E8C3154B5F49156C5BA889B4634EDA4997D ====
Правила, инструкции, FAQ!!!
Торрент  Добавлен [26 июн 2020, 19:14] Скачать торрент Магнет ссылка
Скачать торрент
[ Размер 17.75 КБ / Просмотров 12 ]

Статус
Проверен 
 
Размер  436.94 МБ
Приватный: Нет (DHT включён)
.torrent скачан  0
 


     Отправить личное сообщение
   
Страница 1 из 1
Показать сообщения за:  Поле сортировки  
Начать новую тему Ответить на тему


Сейчас этот форум просматривают: нет зарегистрированных пользователей и гости: 0


Вы не можете начинать темы
Вы не можете отвечать на сообщения
Вы не можете редактировать свои сообщения
Вы не можете удалять свои сообщения
Вы не можете добавлять вложения

Перейти:  
cron