Начать новую тему Ответить на тему
Статистика раздачи
Размер: 597.06 МБ | Добавлен: 26 июн 2020, 21:09 | Скачали: 0
Сидеров: 0  [0 байт/сек]    Личеров: 0  [0 байт/сек]
Пред. тема | След. тема 

Автор
Сообщение

СообщениеДобавлено: 26 июн 2020, 21:09 

Ответить с цитатой 

Wynardtage (EP) - Close II Death
Жанр: EBM / Dark-Electro / Industrial
Носитель: CD
Год издания: 2013
Издатель (лейбл): Gravitator Records
Номер по каталогу: GRR 143
Страна: Germany
Аудиокодек: FLAC (*.flac)
Тип рипа: image+.cue
Битрейт аудио: lossless
Продолжительность: 1:18:16
Источник (релизер): rd
Наличие сканов в содержимом раздачи: да
Треклист:
01. Salvation (04:07)
02. One Last Magazine (04:04)
03. Missed For A Lifetime (03:56)
04. Circle Of Sadness (04:35)
05. Ohne Dich (04:48)
06. Ohne Dich (Blutengel Remix) (04:31)
07. Broken Illusions (Cephalgy Remix) (05:06)
08. Broken Illusions (ES23 Remix) (03:52)
09. Salvation (Suicide Commando Remix) (04:35)
10. Salvation (Nachtmahr Remix) (04:31)
11. Salvation (Amduscia Remix) (04:05)
12. Dissolution (Nolongerhuman Remix) (04:07)
13. Deep Red (Die Braut Remix) (04:08)
14. Sea Of Agony (Alien Vampires Remix) (03:57)
15. Regret (Acylum Remix) (04:27)
16. Crash Of A Star (Kayfabe Lanoise Remix) (06:21)
17. Home (04:26)
18. Closer (Kennedy Remix) (03:45)
Код:
Exact Audio Copy V1.0 beta 3 from 29. August 2011
EAC extraction logfile from 13. December 2013, 0:49
Wynardtage / Close II Death (GRR 143)
Used drive  : PLEXTOR BD-R   PX-B940SA   Adapter: 0  ID: 5
Read mode               : Secure
Utilize accurate stream : Yes
Defeat audio cache      : Yes
Make use of C2 pointers : No
Read offset correction                      : 667
Overread into Lead-In and Lead-Out          : No
Fill up missing offset samples with silence : Yes
Delete leading and trailing silent blocks   : No
Null samples used in CRC calculations       : Yes
Used interface                              : Installed external ASPI interface
Used output format              : User Defined Encoder
Selected bitrate                : 1024 kBit/s
Quality                         : High
Add ID3 tag                     : Yes
Command line compressor         : E:\Program Files (x86)\Exact Audio Copy\Flac\flac.exe
Additional command line options : -V -8 -T "Date=%year%" -T "Genre=%genre%" %source%
TOC of the extracted CD
     Track |   Start  |  Length  | Start sector | End sector
    ---------------------------------------------------------
        1  |  0:00.00 |  4:04.58 |         0    |    18357
        2  |  4:04.58 |  4:02.13 |     18358    |    36520
        3  |  8:06.71 |  3:54.14 |     36521    |    54084
        4  | 12:01.10 |  4:33.49 |     54085    |    74608
        5  | 16:34.59 |  4:46.44 |     74609    |    96102
        6  | 21:21.28 |  4:29.58 |     96103    |   116335
        7  | 25:51.11 |  5:04.41 |    116336    |   139176
        8  | 30:55.52 |  4:32.69 |    139177    |   159645
        9  | 35:28.46 |  4:29.03 |    159646    |   179823
       10  | 39:57.49 |  3:55.04 |    179824    |   197452
       11  | 43:52.53 |  3:53.51 |    197453    |   214978
       12  | 47:46.29 |  4:12.54 |    214979    |   233932
       13  | 51:59.08 |  4:52.45 |    233933    |   255877
       14  | 56:51.53 |  5:03.31 |    255878    |   278633
       15  | 61:55.09 |  3:29.61 |    278634    |   294369
       16  | 65:24.70 |  4:32.46 |    294370    |   314815
       17  | 69:57.41 |  4:24.52 |    314816    |   334667
       18  | 74:22.18 |  0:04.00 |    334668    |   334967
       19  | 74:26.18 |  3:49.50 |    334968    |   352192
Range status and errors
Selected range
     Filename D:\MUSIC\Wynardtage - Close II Death (GRR 143).wav
     Peak level 99.7 %
     Extraction speed 5.3 X
     Range quality 100.0 %
     Test CRC AD1771A9
     Copy CRC AD1771A9
     Copy OK
No errors occurred
AccurateRip summary
Track  1  not present in database
Track  2  not present in database
Track  3  not present in database
Track  4  not present in database
Track  5  not present in database
Track  6  not present in database
Track  7  not present in database
Track  8  not present in database
Track  9  not present in database
Track 10  not present in database
Track 11  not present in database
Track 12  not present in database
Track 13  not present in database
Track 14  not present in database
Track 15  not present in database
Track 16  not present in database
Track 17  not present in database
Track 18  not present in database
Track 19  not present in database
None of the tracks are present in the AccurateRip database
End of status report
==== Log checksum 763BC3C93933D59DE132DCE5E8BE0FB077F67EFD881DEB6B4AEFFC5918AE1B0C ====
Правила, инструкции, FAQ!!!
Торрент  Добавлен [26 июн 2020, 21:09] Скачать торрент Магнет ссылка
Скачать торрент
[ Размер 12.86 КБ / Просмотров 6 ]

Статус
Проверен 
 
Размер  597.06 МБ
Приватный: Нет (DHT включён)
.torrent скачан  0
 


     Отправить личное сообщение
   
Страница 1 из 1
Показать сообщения за:  Поле сортировки  
Начать новую тему Ответить на тему


Сейчас этот форум просматривают: нет зарегистрированных пользователей и гости: 0


Вы не можете начинать темы
Вы не можете отвечать на сообщения
Вы не можете редактировать свои сообщения
Вы не можете удалять свои сообщения
Вы не можете добавлять вложения

Перейти:  
cron