Начать новую тему Ответить на тему
Статистика раздачи
Размер: 505.03 МБ | Добавлен: 26 июн 2020, 20:14 | Скачали: 0
Сидеров: 0  [0 байт/сек]    Личеров: 0  [0 байт/сек]
Пред. тема | След. тема 

Автор
Сообщение

СообщениеДобавлено: 26 июн 2020, 20:14 

Ответить с цитатой 

Wumpscut - Born Again
Жанр: EBM/dark-electro/industrial
Год выпуска диска: 1997
Производитель диска: USA (Metropolis Records)
Аудио кодек: FLAC
Тип рипа: image+.cue
Битрейт аудио: lossless
Продолжительность: 72мин 52сек
Трэклист:
01. Wumpscut - Is It You (Scintillating Mix)
02. Wumpscut - Womb (Born Again Mix)
03. Wumpscut - Angel (Deejay Dead Remix)
04. Wumpscut - Embryodead (Deejay Dead Remix)
05. Wumpscut - Golgotha (Roughly Distorted Version)
06. Wumpscut - Wumpsex (Previously Unreleased)
07. Wumpscut - Womb (Miserable Days Mix)
08. Wumpscut - War (Revenge and Nemesis Version)
09. Wumpscut - Man's Complete Idiot (Previously Unreleased)
10. Wumpscut - Thorns (Distant Vocals Version)
11. Wumpscut - Down Where We Belong (Instrumental Take 1)
12. Wumpscut - Embryodead (Cockroach Modified)
13. Wumpscut - Vaporize (Wumpscut Remix)
14. Wumpscut - Die In Winter (US - Bonus on Bunker Gate 7)
Доп. информация: Коврики в комплекте
Код:
Exact Audio Copy V0.99 prebeta 4 from 23. January 2008
Отчёт EAC об извлечении, выполненном 5. сентября 2009, 18:22
Wumpscut / Born Again
Дисковод: Optiarc DVD RW AD-7170A   Adapter: 0  ID: 0
Режим чтения                 : Достоверность
Использование точного потока : Да
Отключение кэша аудио        : Да
Использование указателей C2  : Нет
Коррекция смещения при чтении                     : 48
Способность читать области Lead-in и Lead-out     : Нет
Заполнение пропущенных сэмплов тишиной            : Да
Удаление блоков с тишиной в начале и конце        : Нет
При вычислениях CRC использовались нулевые сэмплы : Нет
Интерфейс                                         : Встроенный Win32-интерфейс для Win NT/2000
Выходной формат : Внутренние WAV-операции
Формат сэмплов  : 44.100 Гц; 16 бит; стерео
TOC извлечённого CD
     Трек |   Старт  | Длительность | Начальный сектор | Конечный сектор
    ---------------------------------------------------------------------
       1  |  0:00.01 |    6:38.37   |           1      |      29887
       2  |  6:38.38 |    5:55.21   |       29888      |      56533
       3  | 12:33.59 |    5:44.28   |       56534      |      82361
       4  | 18:18.12 |    6:06.42   |       82362      |     109853
       5  | 24:24.54 |    6:11.48   |      109854      |     137726
       6  | 30:36.27 |    4:04.65   |      137727      |     156091
       7  | 34:41.17 |    4:47.43   |      156092      |     177659
       8  | 39:28.60 |    7:00.46   |      177660      |     209205
       9  | 46:29.31 |    3:07.58   |      209206      |     223288
      10  | 49:37.14 |    5:50.40   |      223289      |     249578
      11  | 55:27.54 |    3:35.42   |      249579      |     265745
      12  | 59:03.21 |    4:32.66   |      265746      |     286211
      13  | 63:36.12 |    5:10.01   |      286212      |     309462
      14  | 68:46.13 |    4:06.43   |      309463      |     327955
Характеристики диапазона извлечения и сообщения об ошибках
Выбранный диапазон
     Имя файла G:\Music\EBM, Post-industrial\wumpscut\lossless\1997 - Born Again\Wumpscut - Born Again.wav
     Пиковый уровень 100.0 %
     Качество диапазона 100.0 %
     CRC копии 16FF587A
     Копирование... OK
Ошибок не произошло
AccurateRip: сводка
Трек  1  точность не определена (достоверность 3)  [CD547DA6], AccurateRip вернул [7B2BF36E]
Трек  2  точность не определена (достоверность 3)  [E12DE848], AccurateRip вернул [A12FCA68]
Трек  3  точность не определена (достоверность 3)  [3E33A44F], AccurateRip вернул [6F648DE7]
Трек  4  точность не определена (достоверность 3)  [E751C507], AccurateRip вернул [C1B8DB87]
Трек  5  точность не определена (достоверность 3)  [EC6A30BF], AccurateRip вернул [02540107]
Трек  6  точность не определена (достоверность 2)  [8EBBDDBC], AccurateRip вернул [875A07CC]
Трек  7  точность не определена (достоверность 3)  [AE5E72F7], AccurateRip вернул [B82A5C87]
Трек  8  точность не определена (достоверность 2)  [6FCA1C15], AccurateRip вернул [8D118195]
Трек  9  точность не определена (достоверность 3)  [432DDB7A], AccurateRip вернул [7C68A60A]
Трек 10  точность не определена (достоверность 3)  [6912C032], AccurateRip вернул [355E608A]
Трек 11  точность не определена (достоверность 2)  [BD51A9ED], AccurateRip вернул [8939F3F5]
Трек 12  точность не определена (достоверность 3)  [36489415], AccurateRip вернул [62C9C03D]
Трек 13  точность не определена (достоверность 2)  [FA1BF06B], AccurateRip вернул [DAA0F273]
Трек 14  точность не определена (достоверность 2)  [72A09884], AccurateRip вернул [CA7EDB84]
Ни один трек не прошёл проверки на точность
В вашей базе может быть иной вариант штамповки диска
Конец отчёта
Правила, инструкции, FAQ!!!
Торрент  Добавлен [26 июн 2020, 20:14] Скачать торрент Магнет ссылка
Скачать торрент
[ Размер 20.72 КБ / Просмотров 9 ]

Статус
Проверен 
 
Размер  505.03 МБ
Приватный: Нет (DHT включён)
.torrent скачан  0
 


     Отправить личное сообщение
   
Страница 1 из 1
Показать сообщения за:  Поле сортировки  
Начать новую тему Ответить на тему


Сейчас этот форум просматривают: нет зарегистрированных пользователей и гости: 0


Вы не можете начинать темы
Вы не можете отвечать на сообщения
Вы не можете редактировать свои сообщения
Вы не можете удалять свои сообщения
Вы не можете добавлять вложения

Перейти:  
cron