Начать новую тему Ответить на тему
Статистика раздачи
Размер: 409.32 МБ | Добавлен: 26 июн 2020, 18:54 | Скачали: 0
Сидеров: 0  [0 байт/сек]    Личеров: 0  [0 байт/сек]
Пред. тема | След. тема 

Автор
Сообщение

СообщениеДобавлено: 26 июн 2020, 18:54 

Ответить с цитатой 

Supreme Court - Yell It Out
Жанр: EBM, Dark-Electro, Industrial
Год выпуска диска: 2006
Производитель диска: Germany
Аудио кодек: FLAC
Тип рипа: tracks+.cue
Битрейт аудио: lossless
Продолжительность: 55:36
Источник: What.CD
Треклист:
1 Yell... 1:20
2 Corroded Brains 5:20
Vocals [Female] - Claudia Mohr
3 Satisfy My Needs 4:37
4 (Trust) In The Holy Light 4:53
5 Dreaming Reality? 5:46
6 Mass Media Murder 4:00
Featuring - FGFC820
Lyrics By, Vocals - Rik Millhouse
7 Natural Born Victims 5:07
8 Next Exit Extinction 5:21
9 A.L.S - S.L.A 4:37
10 Never Again 3:48
11 Terror Chat (Sasser Mix) 4:49
Featuring - Feindflug
Lyrics By - C. Nebel*
Vocals - Felix*
Vocals [Female] - Claudia Mohr
12 ...It Out! 5:59
Внимание! Все выложенные здесь материалы предоставлены исключительно в целях
ознакомления! После ознакомления с материалами Вы обязаны их удалить! Если Вы хотите пользоваться
данным материалом в дальнейшем – Вы должны приобрести лицензионный диск.

Лучшая ваша благодарность за раздачу - отзывы об альбоме!
Друзья, оставайтесь на раздаче, ибо скорость исходящего канала у меня пока всего 512 Кбит/с
Код:
Exact Audio Copy V0.99 prebeta 3 from 28. July 2007
EAC extraction logfile from 23. March 2008, 11:32
Supreme Court / Yell It Out
Used drive  : LITE-ON DVDRW LH-20A1H   Adapter: 2  ID: 1
Read mode               : Secure
Utilize accurate stream : Yes
Defeat audio cache      : Yes
Make use of C2 pointers : No
Read offset correction                      : 0
Overread into Lead-In and Lead-Out          : No
Fill up missing offset samples with silence : Yes
Delete leading and trailing silent blocks   : No
Null samples used in CRC calculations       : No
Used interface                              : Installed external ASPI interface
Gap handling                                : Appended to previous track
Used output format              : User Defined Encoder
Selected bitrate                : 192 kBit/s
Quality                         : High
Add ID3 tag                     : No
Command line compressor         : C:\Program Files (x86)\Exact Audio Copy\flac.exe
Additional command line options : -8 -A tukey(0.25) -A gauss(0.1875) -b 4096 -V -T "artist=%a" -T "title=%t" -T "album=%g" -T "date=%y" -T "tracknumber=%n" -T "genre=%m" %s --sector-align
TOC of the extracted CD
     Track |   Start  |  Length  | Start sector | End sector
    ---------------------------------------------------------
        1  |  0:00.00 |  1:19.38 |         0    |     5962
        2  |  1:19.38 |  5:20.07 |      5963    |    29969
        3  |  6:39.45 |  4:37.03 |     29970    |    50747
        4  | 11:16.48 |  4:53.14 |     50748    |    72736
        5  | 16:09.62 |  5:45.73 |     72737    |    98684
        6  | 21:55.60 |  4:00.27 |     98685    |   116711
        7  | 25:56.12 |  5:06.53 |    116712    |   139714
        8  | 31:02.65 |  5:21.10 |    139715    |   163799
        9  | 36:24.00 |  4:37.08 |    163800    |   184582
       10  | 41:01.08 |  3:47.41 |    184583    |   201648
       11  | 44:48.49 |  4:48.39 |    201649    |   223287
       12  | 49:37.13 |  5:59.00 |    223288    |   250212
Track  1
     Filename D:\MP3\Supreme Court\Yell It Out\Supreme Court - 01 Yell....wav
     Pre-gap length  0:00:02.00
     Peak level 100.0 %
     Track quality 100.0 %
     Test CRC 5B6356E3
     Copy CRC 5B6356E3
     Copy OK
Track  2
     Filename D:\MP3\Supreme Court\Yell It Out\Supreme Court - 02 Corroded Brains.wav
     Pre-gap length  0:00:00.01
     Peak level 100.0 %
     Track quality 100.0 %
     Test CRC D15EF44E
     Copy CRC D15EF44E
     Copy OK
Track  3
     Filename D:\MP3\Supreme Court\Yell It Out\Supreme Court - 03 Satisfy My Needs.wav
     Pre-gap length  0:00:01.72
     Peak level 100.0 %
     Track quality 100.0 %
     Test CRC 74A1282B
     Copy CRC 74A1282B
     Copy OK
Track  4
     Filename D:\MP3\Supreme Court\Yell It Out\Supreme Court - 04 (Trust) In The Holy Light.wav
     Pre-gap length  0:00:01.68
     Peak level 100.0 %
     Track quality 100.0 %
     Test CRC 7AB59E2B
     Copy CRC 7AB59E2B
     Copy OK
Track  5
     Filename D:\MP3\Supreme Court\Yell It Out\Supreme Court - 05 Dreaming Reality .wav
     Pre-gap length  0:00:01.70
     Peak level 100.0 %
     Track quality 100.0 %
     Test CRC 98DB14A6
     Copy CRC 98DB14A6
     Copy OK
Track  6
     Filename D:\MP3\Supreme Court\Yell It Out\Supreme Court - 06 Mass Media Murder feat. Rexx Arkana (FGFC820).wav
     Pre-gap length  0:00:01.74
     Peak level 100.0 %
     Track quality 100.0 %
     Test CRC F1ACA2D2
     Copy CRC F1ACA2D2
     Copy OK
Track  7
     Filename D:\MP3\Supreme Court\Yell It Out\Supreme Court - 07 Natural Born Victims.wav
     Pre-gap length  0:00:01.59
     Peak level 100.0 %
     Track quality 100.0 %
     Test CRC 3B2B3E40
     Copy CRC 3B2B3E40
     Copy OK
Track  8
     Filename D:\MP3\Supreme Court\Yell It Out\Supreme Court - 08 Next Exit Extinction.wav
     Pre-gap length  0:00:02.02
     Peak level 100.0 %
     Track quality 99.9 %
     Test CRC FC01E434
     Copy CRC FC01E434
     Copy OK
Track  9
     Filename D:\MP3\Supreme Court\Yell It Out\Supreme Court - 09 A.L.S - S.L.A.wav
     Pre-gap length  0:00:01.73
     Peak level 100.0 %
     Track quality 100.0 %
     Test CRC 5D892EDE
     Copy CRC 5D892EDE
     Copy OK
Track 10
     Filename D:\MP3\Supreme Court\Yell It Out\Supreme Court - 10 Never Again.wav
     Pre-gap length  0:00:01.68
     Peak level 100.0 %
     Track quality 100.0 %
     Test CRC 63F0DFEE
     Copy CRC 63F0DFEE
     Copy OK
Track 11
     Filename D:\MP3\Supreme Court\Yell It Out\Supreme Court - 11 Terror Chat feat. Felix (Feindflug).wav
     Pre-gap length  0:00:01.69
     Peak level 100.0 %
     Track quality 100.0 %
     Test CRC AB59208A
     Copy CRC AB59208A
     Copy OK
Track 12
     Filename D:\MP3\Supreme Court\Yell It Out\Supreme Court - 12 ... It Out!.wav
     Peak level 100.0 %
     Track quality 100.0 %
     Test CRC 90E48545
     Copy CRC 90E48545
     Copy OK
No errors occurred
End of status report
Код:
REM GENRE Industrial
REM DATE 2005
REM DISCID B40D080C
REM COMMENT "ExactAudioCopy v0.99pb3"
PERFORMER "Supreme Court"
TITLE "Yell It Out"
FILE "Supreme Court - 01 Yell....wav" WAVE
  TRACK 01 AUDIO
    TITLE "Yell..."
    PERFORMER "Supreme Court"
    INDEX 01 00:00:00
  TRACK 02 AUDIO
    TITLE "Corroded Brains"
    PERFORMER "Supreme Court"
    INDEX 00 01:19:37
FILE "Supreme Court - 02 Corroded Brains.wav" WAVE
    INDEX 01 00:00:00
  TRACK 03 AUDIO
    TITLE "Satisfy My Needs"
    PERFORMER "Supreme Court"
    INDEX 00 05:18:10
FILE "Supreme Court - 03 Satisfy My Needs.wav" WAVE
    INDEX 01 00:00:00
  TRACK 04 AUDIO
    TITLE "(Trust0 In The Holy Light"
    PERFORMER "Supreme Court"
    INDEX 00 04:35:10
FILE "Supreme Court - 04 (Trust) In The Holy Light.wav" WAVE
    INDEX 01 00:00:00
  TRACK 05 AUDIO
    TITLE "Dreaming Reality?"
    PERFORMER "Supreme Court"
    INDEX 00 04:51:19
FILE "Supreme Court - 05 Dreaming Reality .wav" WAVE
    INDEX 01 00:00:00
  TRACK 06 AUDIO
    TITLE "Mass Media Murder feat. Rexx Arkana (FGFC820)"
    PERFORMER "Supreme Court"
    INDEX 00 05:43:74
FILE "Supreme Court - 06 Mass Media Murder feat. Rexx Arkana (FGFC820).wav" WAVE
    INDEX 01 00:00:00
  TRACK 07 AUDIO
    TITLE "Natural Born Victims"
    PERFORMER "Supreme Court"
    INDEX 00 03:58:43
FILE "Supreme Court - 07 Natural Born Victims.wav" WAVE
    INDEX 01 00:00:00
  TRACK 08 AUDIO
    TITLE "Next Exit Extinction"
    PERFORMER "Supreme Court"
    INDEX 00 05:04:51
FILE "Supreme Court - 08 Next Exit Extinction.wav" WAVE
    INDEX 01 00:00:00
  TRACK 09 AUDIO
    TITLE "A.L.S - S.L.A"
    PERFORMER "Supreme Court"
    INDEX 00 05:19:12
FILE "Supreme Court - 09 A.L.S - S.L.A.wav" WAVE
    INDEX 01 00:00:00
  TRACK 10 AUDIO
    TITLE "Never Again"
    PERFORMER "Supreme Court"
    INDEX 00 04:35:15
FILE "Supreme Court - 10 Never Again.wav" WAVE
    INDEX 01 00:00:00
  TRACK 11 AUDIO
    TITLE "Terror Chat feat. Felix (Feindflug)"
    PERFORMER "Supreme Court"
    INDEX 00 03:45:47
FILE "Supreme Court - 11 Terror Chat feat. Felix (Feindflug).wav" WAVE
    INDEX 01 00:00:00
FILE "Supreme Court - 12 ... It Out!.wav" WAVE
  TRACK 12 AUDIO
    TITLE "... It Out!"
    PERFORMER "Supreme Court"
    INDEX 01 00:00:00
Правила, инструкции, FAQ!!!
Торрент  Добавлен [26 июн 2020, 18:54] Скачать торрент Магнет ссылка
Скачать торрент
[ Размер 17.99 КБ / Просмотров 13 ]

Статус
Проверен 
 
Размер  409.32 МБ
Приватный: Нет (DHT включён)
.torrent скачан  0
 


     Отправить личное сообщение
   
Страница 1 из 1
Показать сообщения за:  Поле сортировки  
Начать новую тему Ответить на тему


Сейчас этот форум просматривают: нет зарегистрированных пользователей и гости: 0


Вы не можете начинать темы
Вы не можете отвечать на сообщения
Вы не можете редактировать свои сообщения
Вы не можете удалять свои сообщения
Вы не можете добавлять вложения

Перейти:  
cron