Начать новую тему Ответить на тему
Статистика раздачи
Размер: 593.24 МБ | Добавлен: 26 июн 2020, 19:49 | Скачали: 0
Сидеров: 0  [0 байт/сек]    Личеров: 0  [0 байт/сек]
Пред. тема | След. тема 

Автор
Сообщение

СообщениеДобавлено: 26 июн 2020, 19:49 

Ответить с цитатой 

Suicide Commando - ReCONSTRUCTion

(Limited Edition)

Жанр: EBM, Dark Electro, Industrial Год выпуска диска: 1998 Производитель диска: USA
Аудио кодек: FLAC Тип рипа: tracks+.cue Битрейт аудио: lossless Продолжительность: 82:18
1-01 Acid Bath (5:57)
1-02 Better Off Dead (6:24)
1-03 Putrefaction Process (5:17)
1-04 Desire (4:44)
1-05 Somnambulist (4:10)
1-06 Come To Me (v2.0) (5:25)
1-07 The Mirror (Re-MASTERed) (3:08)
1-08 Pesticide (3:49)
1-09 Massacre (5:15)
1-10 Ignorance (4:24)
1-11 Euthanasia (6:04)
Код:
Exact Audio Copy V0.99 prebeta 4 from 23. January 2008
EAC extraction logfile from 3. August 2008, 19:45
Suicide Commando / Construct >< Destruct
Used drive  : DVD-16X DVD-ROM BDV316C   Adapter: 1  ID: 0
Read mode               : Secure
Utilize accurate stream : Yes
Defeat audio cache      : Yes
Make use of C2 pointers : No
Read offset correction                      : 12
Overread into Lead-In and Lead-Out          : No
Fill up missing offset samples with silence : Yes
Delete leading and trailing silent blocks   : No
Null samples used in CRC calculations       : Yes
Used interface                              : Native Win32 interface for Win NT & 2000
Gap handling                                : Appended to previous track
Used output format              : User Defined Encoder
Selected bitrate                : 128 kBit/s
Quality                         : High
Add ID3 tag                     : No
Command line compressor         : C:\Program Files\FLAC\flac.exe
Additional command line options : -V -8 -T \"artist=%a\" -T \"title=%t\" -T \"album=%g\" -T \"date=%y\" -T \"tracknumber=%n\" -T \"genre=%m\" %s
TOC of the extracted CD
     Track |   Start  |  Length  | Start sector | End sector
    ---------------------------------------------------------
        1  |  0:00.32 |  5:57.38 |        32    |    26844
        2  |  5:57.70 |  6:24.12 |     26845    |    55656
        3  | 12:22.07 |  5:17.13 |     55657    |    79444
        4  | 17:39.20 |  4:44.35 |     79445    |   100779
        5  | 22:23.55 |  4:10.62 |    100780    |   119591
        6  | 26:34.42 |  5:25.58 |    119592    |   144024
        7  | 32:00.25 |  3:08.37 |    144025    |   158161
        8  | 35:08.62 |  3:49.50 |    158162    |   175386
        9  | 38:58.37 |  5:15.18 |    175387    |   199029
       10  | 44:13.55 |  4:24.55 |    199030    |   218884
       11  | 48:38.35 |  6:04.42 |    218885    |   246226
Track  1
     Filename C:\RIPS\01 - acid bath.wav
     Pre-gap length  0:00:02.32
     Peak level 99.0 %
     Track quality 100.0 %
     Test CRC AA6077B7
     Copy CRC AA6077B7
     Copy OK
Track  2
     Filename C:\RIPS\02 - better off dead.wav
     Pre-gap length  0:00:01.55
     Peak level 99.0 %
     Track quality 99.9 %
     Test CRC FC9035FB
     Copy CRC FC9035FB
     Copy OK
Track  3
     Filename C:\RIPS\03 - putrefaction process.wav
     Pre-gap length  0:00:01.37
     Peak level 99.1 %
     Track quality 100.0 %
     Test CRC 770D6CAA
     Copy CRC 770D6CAA
     Copy OK
Track  4
     Filename C:\RIPS\04 - desire.wav
     Pre-gap length  0:00:01.40
     Peak level 93.5 %
     Track quality 100.0 %
     Test CRC ECA995B8
     Copy CRC ECA995B8
     Copy OK
Track  5
     Filename C:\RIPS\05 - somnambulist.wav
     Pre-gap length  0:00:01.05
     Peak level 99.0 %
     Track quality 100.0 %
     Test CRC BA64DA8F
     Copy CRC BA64DA8F
     Copy OK
Track  6
     Filename C:\RIPS\06 - come to me (v2.0).wav
     Pre-gap length  0:00:01.62
     Peak level 99.0 %
     Track quality 99.9 %
     Test CRC BC8E9EC4
     Copy CRC BC8E9EC4
     Copy OK
Track  7
     Filename C:\RIPS\07 - the mirror (re-MASTERed).wav
     Peak level 99.0 %
     Track quality 100.0 %
     Test CRC DAF674A5
     Copy CRC DAF674A5
     Copy OK
Track  8
     Filename C:\RIPS\08 - pesticide.wav
     Pre-gap length  0:00:01.42
     Peak level 99.0 %
     Track quality 100.0 %
     Test CRC 69F2D029
     Copy CRC 69F2D029
     Copy OK
Track  9
     Filename C:\RIPS\09 - massacre.wav
     Pre-gap length  0:00:02.22
     Peak level 99.0 %
     Track quality 100.0 %
     Test CRC 6179BADE
     Copy CRC 6179BADE
     Copy OK
Track 10
     Filename C:\RIPS\10 - ignorance.wav
     Pre-gap length  0:00:01.28
     Peak level 99.0 %
     Track quality 100.0 %
     Test CRC 0BFD38A4
     Copy CRC 0BFD38A4
     Copy OK
Track 11
     Filename C:\RIPS\11 - euthanasia.wav
     Pre-gap length  0:00:01.70
     Peak level 96.8 %
     Track quality 100.0 %
     Test CRC 60DC7376
     Copy CRC 60DC7376
     Copy OK
No errors occurred
End of status report
2-01 Decoder (Instrumental Version) (3:28)
2-02 Better Off Dead (Remixed By Dive) Remix - Dive (4:18)
2-03 Desire (SC DNA Swab) Remix - :wumpscut: (4:19)
2-04 Violator (4:32)
2-05 Massacre (Exterminate) Remix - Plastic Noise Experience (4:48)
2-06 Better Off Dead (Remixed By Pierrepoint) (6:08)
Код:
Exact Audio Copy V0.99 prebeta 4 from 23. January 2008
EAC extraction logfile from 3. August 2008, 20:16
Suicide Commando / Reconstruction (Lim.Ed.) - Disc 2
Used drive  : DVD-16X DVD-ROM BDV316C   Adapter: 1  ID: 0
Read mode               : Secure
Utilize accurate stream : Yes
Defeat audio cache      : Yes
Make use of C2 pointers : No
Read offset correction                      : 12
Overread into Lead-In and Lead-Out          : No
Fill up missing offset samples with silence : Yes
Delete leading and trailing silent blocks   : No
Null samples used in CRC calculations       : Yes
Used interface                              : Native Win32 interface for Win NT & 2000
Gap handling                                : Appended to previous track
Used output format              : User Defined Encoder
Selected bitrate                : 128 kBit/s
Quality                         : High
Add ID3 tag                     : No
Command line compressor         : C:\Program Files\FLAC\flac.exe
Additional command line options : -V -8 -T \"artist=%a\" -T \"title=%t\" -T \"album=%g\" -T \"date=%y\" -T \"tracknumber=%n\" -T \"genre=%m\" %s
TOC of the extracted CD
     Track |   Start  |  Length  | Start sector | End sector
    ---------------------------------------------------------
        1  |  0:00.00 |  3:28.22 |         0    |    15621
        2  |  3:28.22 |  4:18.18 |     15622    |    34989
        3  |  7:46.40 |  4:19.57 |     34990    |    54471
        4  | 12:06.22 |  4:32.08 |     54472    |    74879
        5  | 16:38.30 |  4:48.35 |     74880    |    96514
        6  | 21:26.65 |  6:08.67 |     96515    |   124181
Track  1
     Filename C:\RIPS\01 - Decoder (instrumental version).wav
     Pre-gap length  0:00:02.00
     Peak level 96.6 %
     Track quality 100.0 %
     Test CRC 68B1025F
     Copy CRC 68B1025F
     Copy OK
Track  2
     Filename C:\RIPS\02 - Better Off Dead ]] remixed by dive.wav
     Peak level 91.2 %
     Track quality 100.0 %
     Test CRC E374BB7D
     Copy CRC E374BB7D
     Copy OK
Track  3
     Filename C:\RIPS\03 - Desire (sca dna swab) ]] remixed by -wumpscut-.wav
     Pre-gap length  0:00:01.70
     Peak level 94.5 %
     Track quality 100.0 %
     Test CRC 30C78C0C
     Copy CRC 30C78C0C
     Copy OK
Track  4
     Filename C:\RIPS\04 - Violator.wav
     Pre-gap length  0:00:01.12
     Peak level 96.6 %
     Track quality 100.0 %
     Test CRC 7DB9746D
     Copy CRC 7DB9746D
     Copy OK
Track  5
     Filename C:\RIPS\05 - Massacre (exterminate) ]] remixed by plastic noise experience.wav
     Peak level 100.0 %
     Track quality 100.0 %
     Test CRC C130A521
     Copy CRC C130A521
     Copy OK
Track  6
     Filename C:\RIPS\06 - Better Off Dead ]] remixed by pierrepoint.wav
     Peak level 96.6 %
     Track quality 100.0 %
     Test CRC CF189A03
     Copy CRC CF189A03
     Copy OK
No errors occurred
End of status report
Доп. информация: Along with the new cd Construct/Destruct Suicide Commando also releases another new limited edition called "reCONSTRUCTion" (on 2500 copies only, already SOLD OUT !), including the regular CD + bonus disc offering new material and remixes from bands like :wumpscut:, Dive, plastic noise experience and Pierrepoint.
Внимание! Все выложенные здесь материалы предоставлены исключительно в целях ознакомления! После ознакомления с материалами Вы обязаны их удалить! Если Вы хотите пользоваться данным материалом в дальнейшем – Вы должны приобрести лицензионный диск.
Пишите мнения об альбоме, пожелания, жмите [+] и "Спасибо" (Вам не сложно, а мне приятно).
Правила, инструкции, FAQ!!!
Торрент  Добавлен [26 июн 2020, 19:49] Скачать торрент Магнет ссылка
Скачать торрент
[ Размер 13.91 КБ / Просмотров 6 ]

Статус
Проверен 
 
Размер  593.24 МБ
Приватный: Нет (DHT включён)
.torrent скачан  0
 


     Отправить личное сообщение
   
Страница 1 из 1
Показать сообщения за:  Поле сортировки  
Начать новую тему Ответить на тему


Сейчас этот форум просматривают: нет зарегистрированных пользователей и гости: 0


Вы не можете начинать темы
Вы не можете отвечать на сообщения
Вы не можете редактировать свои сообщения
Вы не можете удалять свои сообщения
Вы не можете добавлять вложения

Перейти:  
cron