Начать новую тему Ответить на тему
Статистика раздачи
Размер: 428.91 МБ | Добавлен: 26 июн 2020, 16:56 | Скачали: 0
Сидеров: 0  [0 байт/сек]    Личеров: 0  [0 байт/сек]
Пред. тема | След. тема 

Автор
Сообщение

СообщениеДобавлено: 26 июн 2020, 16:56 

Ответить с цитатой 

NVMPH - Nuclear 45 Is Dead
Жанр: EBM, Dark-Electro, Industrial
Год выпуска диска: 2001
Производитель диска: Swedish
Аудио кодек: FLAC
Тип рипа: tracks+.cue
Битрейт аудио: lossless
Продолжительность: 52:37
Источник: What.CD
Треклист:
1.White Walls
2.World
3.Mirror
4.Verdict
5.The Messenger
6.Angel
7.Fed
8.Stalk
9.Misfits
10.Stinger
11.Klik B52
12.Mysterious
13.War Of The Prophets
14.Koma
Лучшая ваша благодарность за раздачу - отзывы об альбоме!
Друзья, оставайтесь на раздаче, ибо скорость исходящего канала у меня пока всего 512 Кбит/с
Код:
Exact Audio Copy V0.99 prebeta 4 from 23. January 2008
EAC extraction logfile from 3. June 2010, 20:59
Unknown Artist / Unknown Title
Used drive  : TEAC    CD-W552G   Adapter: 0  ID: 0
Read mode               : Secure
Utilize accurate stream : Yes
Defeat audio cache      : Yes
Make use of C2 pointers : No
Read offset correction                      : 6
Overread into Lead-In and Lead-Out          : No
Fill up missing offset samples with silence : Yes
Delete leading and trailing silent blocks   : No
Null samples used in CRC calculations       : Yes
Used interface                              : Native Win32 interface for Win NT & 2000
Gap handling                                : Appended to previous track
Used output format : Internal WAV Routines
Sample format      : 44.100 Hz; 16 Bit; Stereo
TOC of the extracted CD
     Track |   Start  |  Length  | Start sector | End sector
    ---------------------------------------------------------
        1  |  0:00.00 |  3:48.03 |         0    |    17102
        2  |  3:48.03 |  3:17.67 |     17103    |    31944
        3  |  7:05.70 |  3:45.60 |     31945    |    48879
        4  | 10:51.55 |  3:24.50 |     48880    |    64229
        5  | 14:16.30 |  4:23.55 |     64230    |    84009
        6  | 18:40.10 |  3:21.37 |     84010    |    99121
        7  | 22:01.47 |  3:24.13 |     99122    |   114434
        8  | 25:25.60 |  3:24.74 |    114435    |   129808
        9  | 28:50.59 |  4:37.40 |    129809    |   150623
       10  | 33:28.24 |  4:17.69 |    150624    |   169967
       11  | 37:46.18 |  3:24.63 |    169968    |   185330
       12  | 41:11.06 |  4:15.41 |    185331    |   204496
       13  | 45:26.47 |  3:06.53 |    204497    |   218499
       14  | 48:33.25 |  4:03.52 |    218500    |   236776
Track  1
     Filename E:\WAV\NVMPH-2001-Nuclear 45 Is Dead\01.wav
     Pre-gap length  0:00:02.00
     Peak level 94.4 %
     Track quality 100.0 %
     Test CRC 9829CD61
     Copy CRC 9829CD61
     Copy OK
Track  2
     Filename E:\WAV\NVMPH-2001-Nuclear 45 Is Dead\02.wav
     Peak level 94.4 %
     Track quality 99.9 %
     Test CRC 5DF28001
     Copy CRC 5DF28001
     Copy OK
Track  3
     Filename E:\WAV\NVMPH-2001-Nuclear 45 Is Dead\03.wav
     Peak level 94.4 %
     Track quality 99.9 %
     Test CRC 54CEDD68
     Copy CRC 54CEDD68
     Copy OK
Track  4
     Filename E:\WAV\NVMPH-2001-Nuclear 45 Is Dead\04.wav
     Peak level 94.4 %
     Track quality 100.0 %
     Test CRC B1877CF4
     Copy CRC B1877CF4
     Copy OK
Track  5
     Filename E:\WAV\NVMPH-2001-Nuclear 45 Is Dead\05.wav
     Peak level 94.4 %
     Track quality 100.0 %
     Test CRC DE0EFD44
     Copy CRC DE0EFD44
     Copy OK
Track  6
     Filename E:\WAV\NVMPH-2001-Nuclear 45 Is Dead\06.wav
     Peak level 94.4 %
     Track quality 100.0 %
     Test CRC 3AEFF03D
     Copy CRC 3AEFF03D
     Copy OK
Track  7
     Filename E:\WAV\NVMPH-2001-Nuclear 45 Is Dead\07.wav
     Peak level 94.4 %
     Track quality 100.0 %
     Test CRC D6BB7D11
     Copy CRC D6BB7D11
     Copy OK
Track  8
     Filename E:\WAV\NVMPH-2001-Nuclear 45 Is Dead\08.wav
     Peak level 94.4 %
     Track quality 100.0 %
     Test CRC 75C598E5
     Copy CRC 75C598E5
     Copy OK
Track  9
     Filename E:\WAV\NVMPH-2001-Nuclear 45 Is Dead\09.wav
     Peak level 94.4 %
     Track quality 100.0 %
     Test CRC 03C226DE
     Copy CRC 03C226DE
     Copy OK
Track 10
     Filename E:\WAV\NVMPH-2001-Nuclear 45 Is Dead\10.wav
     Peak level 94.4 %
     Track quality 100.0 %
     Test CRC 9627066B
     Copy CRC 9627066B
     Copy OK
Track 11
     Filename E:\WAV\NVMPH-2001-Nuclear 45 Is Dead\11.wav
     Peak level 94.4 %
     Track quality 100.0 %
     Test CRC 64C17732
     Copy CRC 64C17732
     Copy OK
Track 12
     Filename E:\WAV\NVMPH-2001-Nuclear 45 Is Dead\12.wav
     Peak level 94.4 %
     Track quality 100.0 %
     Test CRC 33AF8BA7
     Copy CRC 33AF8BA7
     Copy OK
Track 13
     Filename E:\WAV\NVMPH-2001-Nuclear 45 Is Dead\13.wav
     Peak level 94.4 %
     Track quality 100.0 %
     Test CRC 1A3B4F53
     Copy CRC 1A3B4F53
     Copy OK
Track 14
     Filename E:\WAV\NVMPH-2001-Nuclear 45 Is Dead\14.wav
     Peak level 94.4 %
     Track quality 100.0 %
     Test CRC A18901D9
     Copy CRC A18901D9
     Copy OK
No errors occurred
End of status report
Код:
REM DISCID AB0C550E
REM COMMENT "ExactAudioCopy v0.99pb4"
PERFORMER "Unknown Artist"
TITLE "Unknown Title"
FILE "01.wav" WAVE
  TRACK 01 AUDIO
    TITLE "Track01"
    PERFORMER "Unknown Artist"
    INDEX 01 00:00:00
FILE "02.wav" WAVE
  TRACK 02 AUDIO
    TITLE "Track02"
    PERFORMER "Unknown Artist"
    INDEX 01 00:00:00
FILE "03.wav" WAVE
  TRACK 03 AUDIO
    TITLE "Track03"
    PERFORMER "Unknown Artist"
    INDEX 01 00:00:00
FILE "04.wav" WAVE
  TRACK 04 AUDIO
    TITLE "Track04"
    PERFORMER "Unknown Artist"
    INDEX 01 00:00:00
FILE "05.wav" WAVE
  TRACK 05 AUDIO
    TITLE "Track05"
    PERFORMER "Unknown Artist"
    INDEX 01 00:00:00
FILE "06.wav" WAVE
  TRACK 06 AUDIO
    TITLE "Track06"
    PERFORMER "Unknown Artist"
    INDEX 01 00:00:00
FILE "07.wav" WAVE
  TRACK 07 AUDIO
    TITLE "Track07"
    PERFORMER "Unknown Artist"
    INDEX 01 00:00:00
FILE "08.wav" WAVE
  TRACK 08 AUDIO
    TITLE "Track08"
    PERFORMER "Unknown Artist"
    INDEX 01 00:00:00
FILE "09.wav" WAVE
  TRACK 09 AUDIO
    TITLE "Track09"
    PERFORMER "Unknown Artist"
    INDEX 01 00:00:00
FILE "10.wav" WAVE
  TRACK 10 AUDIO
    TITLE "Track10"
    PERFORMER "Unknown Artist"
    INDEX 01 00:00:00
FILE "11.wav" WAVE
  TRACK 11 AUDIO
    TITLE "Track11"
    PERFORMER "Unknown Artist"
    INDEX 01 00:00:00
FILE "12.wav" WAVE
  TRACK 12 AUDIO
    TITLE "Track12"
    PERFORMER "Unknown Artist"
    INDEX 01 00:00:00
FILE "13.wav" WAVE
  TRACK 13 AUDIO
    TITLE "Track13"
    PERFORMER "Unknown Artist"
    INDEX 01 00:00:00
FILE "14.wav" WAVE
  TRACK 14 AUDIO
    TITLE "Track14"
    PERFORMER "Unknown Artist"
    INDEX 01 00:00:00
Правила, инструкции, FAQ!!!
Торрент  Добавлен [26 июн 2020, 16:56] Скачать торрент Магнет ссылка
Скачать торрент
[ Размер 18.27 КБ / Просмотров 12 ]

Статус
Проверен 
 
Размер  428.91 МБ
Приватный: Нет (DHT включён)
.torrent скачан  0
 


     Отправить личное сообщение
   
Страница 1 из 1
Показать сообщения за:  Поле сортировки  
Начать новую тему Ответить на тему


Сейчас этот форум просматривают: нет зарегистрированных пользователей и гости: 0


Вы не можете начинать темы
Вы не можете отвечать на сообщения
Вы не можете редактировать свои сообщения
Вы не можете удалять свои сообщения
Вы не можете добавлять вложения

Перейти:  
cron