Начать новую тему Ответить на тему
Статистика раздачи
Размер: 170.97 МБ | Добавлен: 26 июн 2020, 17:12 | Скачали: 0
Сидеров: 0  [0 байт/сек]    Личеров: 0  [0 байт/сек]
Пред. тема | След. тема 

Автор
Сообщение

СообщениеДобавлено: 26 июн 2020, 17:12 

Ответить с цитатой 

AD:keY - Shout! (EP)




• Жанр: EBM | Dark Electro | Industrial
• Носитель: WEB
• Год издания: 2018 (2009)
• Издатель (лейбл) Alfa Matrix
• Номер по каталогу: AM3253DJ
• Страна-производитель релиза: Belgium
• Страна исполнителя (группы): Germany
• Аудиокодек: FLAC (*.flac)
• Тип рипа: tracks
• Продолжительность: 00:23:57
• Источник (релизер): NT DMMANIAC ®
• WEB релиз: bandcamp
• Наличие сканов: front

01 - Shout! (Radio Mix) (00:03:31)
02 - Shout! (Pain Mix) (00:05:03)
03 - Shout! (Frickel Mix by MC1R) (00:03:24)
04 - Stay (00:03:04)
05 - Shout! (Pressure Remix by Digital Energy) (00:05:21)
06 - Agros Baby (00:03:32)

foobar2000 1.2.5 / Замер динамического диапазона (DR) 1.1.1
Дата отчёта: 2018-03-28 17:27:10
--------------------------------------------------------------------------------
Анализ: AD:keY / Shout! EP
--------------------------------------------------------------------------------
DR Пики RMS Продолжительность трека
--------------------------------------------------------------------------------
DR8 -0.10 дБ -8.83 дБ 3:31 01-Shout! (Radio Mix)
DR8 -0.10 дБ -9.28 дБ 5:03 02-Shout! (Pain Mix)
DR8 -0.12 дБ -9.88 дБ 3:24 03-Shout! (Frickel Mix by MC1R)
DR9 -0.10 дБ -9.96 дБ 3:04 04-Stay
DR8 -0.10 дБ -9.16 дБ 5:22 05-Shout! (Pressure Remix by Digital Energy)
DR8 -0.10 дБ -9.67 дБ 3:32 06-Agros Baby
--------------------------------------------------------------------------------
Количество треков: 6
Реальные значения DR: DR8
Частота: 44100 Гц
Каналов: 2
Разрядность: 16
Битрейт: 923 кбит/с
Кодек: FLAC
================================================================================

Код:
-----------------------
DON'T MODIFY THIS FILE
-----------------------
PERFORMER: auCDtect Task Manager, ver. 1.6.0 RC1 build 1.6.0.1
Copyright (c) 2008-2010 y-soft. All rights reserved
[url=http://y-soft.org]http://y-soft.org[/url]
ANALYZER: auCDtect: CD records authenticity detector, version 0.8.2
Copyright (c) 2004 Oleg Berngardt. All rights reserved.
Copyright (c) 2004 Alexander Djourik. All rights reserved.
FILE: 06 - Agros Baby.flac
  Size: 24592189 Hash: D1C25FAE9754A735B19627914009EA3C Accuracy: -m0
  Conclusion: CDDA 99%
  Signature: 43710B63C6A9412BFEBE6B34512218ED07FE509C
FILE: 05 - Shout! (Pressure Remix by Digital Energy).flac
  Size: 42312693 Hash: 1DD33EC570E61CD92941A2285436413B Accuracy: -m0
  Conclusion: CDDA 100%
  Signature: 9D0564CAF07885BE8A155B6DF2F7CFAF82C9F1FD
FILE: 04 - Stay.flac
  Size: 21779179 Hash: 7EDEC4E25257BCC3AA7F0AAC0B41E4DD Accuracy: -m0
  Conclusion: CDDA 100%
  Signature: BFFAE9A41E6C1F4BE9F71ACB3A2A99D17B2D4875
FILE: 03 - Shout! (Frickel Mix by MC1R).flac
  Size: 23600575 Hash: B2491DC7B70A0929E44674DDF90BF51E Accuracy: -m0
  Conclusion: MPEG 95%
  Signature: 4D2D4FB275A2A9956257F4A922F71CBE0726CF2D
FILE: 02 - Shout! (Pain Mix).flac
  Size: 35654359 Hash: C40E99AE3112A217800EE333C4C624D5 Accuracy: -m0
  Conclusion: CDDA 100%
  Signature: 4059FF3818E052D1CEB932660679B5AAF9F0A36F
FILE: 01 - Shout! (Radio Mix).flac
  Size: 26521804 Hash: BAF442333FC491AD9A99E985F76AA349 Accuracy: -m0
  Conclusion: CDDA 100%
  Signature: 5F63237626B09B8C8020EA28439CB3211F7B38FB


Правила, инструкции, FAQ!!!
Торрент  Добавлен [26 июн 2020, 17:12] Скачать торрент Магнет ссылка
Скачать торрент
[ Размер 14.23 КБ / Просмотров 3 ]

Статус
Проверен 
 
Размер  170.97 МБ
Приватный: Нет (DHT включён)
.torrent скачан  0
 


     Отправить личное сообщение
   
Страница 1 из 1
Показать сообщения за:  Поле сортировки  
Начать новую тему Ответить на тему


Сейчас этот форум просматривают: нет зарегистрированных пользователей и гости: 0


Вы не можете начинать темы
Вы не можете отвечать на сообщения
Вы не можете редактировать свои сообщения
Вы не можете удалять свои сообщения
Вы не можете добавлять вложения

Перейти:  
cron