Начать новую тему Ответить на тему
Статистика раздачи
Размер: 228.44 МБ | Добавлен: 26 июн 2020, 17:07 | Скачали: 0
Сидеров: 0  [0 байт/сек]    Личеров: 0  [0 байт/сек]
Пред. тема | След. тема 

Автор
Сообщение

СообщениеДобавлено: 26 июн 2020, 17:07 

Ответить с цитатой 

AD:key - Never Enough




• Жанр: EBM | Dark Electro | Industrial
• Носитель: WEB
• Год издания: 2018
• Издатель (лейбл) Alfa Matrix
• Номер по каталогу: AM3271DJ
• Страна-производитель релиза: Belgium
• Страна исполнителя (группы): Germany
• Аудиокодек: FLAC (*.flac)
• Тип рипа: tracks
• Продолжительность: 00:32:45
• Источник (релизер): NT DMMANIAC ®
• WEB релиз: bandcamp
• Наличие сканов: front

01 - Reanimator (Vocoder Mix) (00:04:58)
02 - Never Enough (Radio Mix) (00:03:07)
03 - Pfeil in dein Herz (Body Mix) (00:04:07)
04 - Elitar (10th Anniversary Longer) (00:03:59)
05 - Never Enough (Extended Peace Mix) (00:04:25)
06 - Never Enough (Angriffspakt Attack Mix) (00:03:22)
07 - Never Enough (Massiv in Mensch Remix) (00:03:51)
08 - Never Enough (Hackfreeds Oldschool Remix) (00:04:54)

foobar2000 1.2.5 / Замер динамического диапазона (DR) 1.1.1
Дата отчёта: 2018-06-23 22:30:40
--------------------------------------------------------------------------------
Анализ: AD:key / Never Enough
--------------------------------------------------------------------------------
DR Пики RMS Продолжительность трека
--------------------------------------------------------------------------------
DR6 -0.50 дБ -8.83 дБ 4:59 01-Reanimator (Vocoder Mix)
DR6 -0.50 дБ -7.95 дБ 3:07 02-Never Enough (Radio Mix)
DR6 -0.50 дБ -6.96 дБ 4:07 03-Pfeil in dein Herz (Body Mix)
DR6 -0.50 дБ -7.27 дБ 4:00 04-Elitär (10th Anniversary Longer)
DR6 -0.50 дБ -7.60 дБ 4:25 05-Never Enough (Extended Peace Mix)
DR5 -0.50 дБ -6.87 дБ 3:23 06-Never Enough (Angriffspakt Attack Mix)
DR6 -0.50 дБ -7.51 дБ 3:51 07-Never Enough (Massiv in Mensch Remix)
DR4 -0.50 дБ -6.00 дБ 4:54 08-Never Enough (Hackfreeds Oldschool Remix)
--------------------------------------------------------------------------------
Количество треков: 8
Реальные значения DR: DR6
Частота: 44100 Гц
Каналов: 2
Разрядность: 16
Битрейт: 882 кбит/с
Кодек: FLAC
================================================================================

Код:
-----------------------
DON'T MODIFY THIS FILE
-----------------------
PERFORMER: auCDtect Task Manager, ver. 1.6.0 RC1 build 1.6.0.1
Copyright (c) 2008-2010 y-soft. All rights reserved
[url=http://y-soft.org]http://y-soft.org[/url]
ANALYZER: auCDtect: CD records authenticity detector, version 0.8.2
Copyright (c) 2004 Oleg Berngardt. All rights reserved.
Copyright (c) 2004 Alexander Djourik. All rights reserved.
FILE: 08 - Never Enough (Hackfreeds Oldschool Remix).flac
  Size: 32544118 Hash: 1C580EC4553A0B457C92B48D851EA275 Accuracy: -m0
  Conclusion: CDDA 100%
  Signature: BB06BA155B42040CF44AEB4439522BF3C110DDDC
FILE: 07 - Never Enough (Massiv in Mensch Remix).flac
  Size: 29743857 Hash: 471DC07A94C1154BA37417906D14C9B6 Accuracy: -m0
  Conclusion: MPEG 95%
  Signature: 7201F2D2E274B001A59B7C61D706D65C0EA42117
FILE: 06 - Never Enough (Angriffspakt Attack Mix).flac
  Size: 22159934 Hash: AC91F1554E070210DAD8F92B883965AE Accuracy: -m0
  Conclusion: CDDA 100%
  Signature: 394B040A3D2A802A0FDC19A2B39E90AEC288449D
FILE: 05 - Never Enough (Extended Peace Mix).flac
  Size: 33710637 Hash: E3557302099ACA5CE7CFD4F0958AA763 Accuracy: -m0
  Conclusion: CDDA 99%
  Signature: 00E1E3DC7B119A92948A9F0F058D2326ACF35B52
FILE: 04 - Elitar (10th Anniversary Longer).flac
  Size: 28997986 Hash: 7C6D0A1DA73021B74E97DD91BFD3BEAE Accuracy: -m0
  Conclusion: CDDA 100%
  Signature: 275BE897EF887A926BC823D0D99599BB32A3F644
FILE: 03 - Pfeil in dein Herz (Body Mix).flac
  Size: 31994682 Hash: 4D3C84CCCE88767BB924B3C4A0468759 Accuracy: -m0
  Conclusion: CDDA 100%
  Signature: 2D8DCD9D4B5F8B51F7846C35E0570F6A6FA9C30D
FILE: 02 - Never Enough (Radio Mix).flac
  Size: 23948348 Hash: 8B3EA60305FFBD2F0751A54CE97FB596 Accuracy: -m0
  Conclusion: CDDA 100%
  Signature: B49389CB9C74DEEBCEC10E570FEA87B1F362DD5C
FILE: 01 - Reanimator (Vocoder Mix).flac
  Size: 36239530 Hash: 2E817752FC6347D5A101C51923067B39 Accuracy: -m0
  Conclusion: CDDA 100%
  Signature: A1D5883AFBEFE041D2C6D511AD5E1D90E2EC7B35



Правила, инструкции, FAQ!!!
Торрент  Добавлен [26 июн 2020, 17:07] Скачать торрент Магнет ссылка
Скачать торрент
[ Размер 18.9 КБ / Просмотров 8 ]

Статус
Проверен 
 
Размер  228.44 МБ
Приватный: Нет (DHT включён)
.torrent скачан  0
 


     Отправить личное сообщение
   
Страница 1 из 1
Показать сообщения за:  Поле сортировки  
Начать новую тему Ответить на тему


Сейчас этот форум просматривают: нет зарегистрированных пользователей и гости: 0


Вы не можете начинать темы
Вы не можете отвечать на сообщения
Вы не можете редактировать свои сообщения
Вы не можете удалять свои сообщения
Вы не можете добавлять вложения

Перейти:  
cron