Начать новую тему Ответить на тему
Статистика раздачи
Размер: 542.94 МБ | Добавлен: 26 июн 2020, 17:02 | Скачали: 0
Сидеров: 0  [0 байт/сек]    Личеров: 0  [0 байт/сек]
Пред. тема | След. тема 

Автор
Сообщение

СообщениеДобавлено: 26 июн 2020, 17:02 

Ответить с цитатой 

AD:keY - Anthropozän (Bonus Tracks Version)




• Жанр: EBM | Dark Electro | Industrial
• Носитель: WEB
• Год издания: 2018 (2015)
• Издатель (лейбл) Alfa Matrix
• Номер по каталогу: AM3252DJ
• Страна-производитель релиза: Belgium
• Страна исполнителя (группы): Germany
• Аудиокодек: FLAC (*.flac)
• Тип рипа: tracks
• Продолжительность: 01:16:37
• Источник (релизер): NT DMMANIAC ®
• WEB релиз: bandcamp
• Наличие сканов: front

01 - Anthropozan (00:03:38)
02 - Kontrovers (00:03:36)
03 - Monotonie (00:04:04)
04 - Autodynamik (00:03:49)
05 - Ich will mehr (00:03:50)
06 - Der Automat (00:03:53)
07 - Wahre Liebe (00:03:25)
08 - Scherben der Nacht (00:03:58)
09 - Stripped (00:04:02)
10 - Ob ihr Recht habt (00:03:53)
11 - Hoch die Hammer V.2-2015 (00:03:37)
12 - So what (00:03:47)
13 - Musique Electronique (00:04:13)
14 - Anthropozan [Remix by MRDTC] (00:04:57)
15 - Der Automat [Remix by Rector Scanner] (00:04:50)
16 - Kontrovers [Remix by Leather Strip] (00:04:05)
17 - Anthropozan [Remix by Serpents] (00:03:47)
18 - Monotonie [Remix by Plastic Noise Experience] (00:04:02)
19 - Monotonie (Remix by OverUnity) (00:04:34)
20 - Anthropozaen (Outro) (00:00:26)

foobar2000 1.2.5 / Замер динамического диапазона (DR) 1.1.1
Дата отчёта: 2018-03-28 17:29:33
--------------------------------------------------------------------------------
Анализ: AD:keY / Anthropozän (Bonus Tracks Version)
--------------------------------------------------------------------------------
DR Пики RMS Продолжительность трека
--------------------------------------------------------------------------------
DR9 -0.45 дБ -10.93 дБ 3:39 01-Anthropozän
DR8 -0.54 дБ -9.68 дБ 3:37 02-Kontrovers
DR9 -0.50 дБ -10.93 дБ 4:04 03-Monotonie
DR9 -0.50 дБ -10.46 дБ 3:49 04-Autodynamik
DR9 -0.54 дБ -10.47 дБ 3:50 05-Ich will mehr
DR8 -0.53 дБ -9.40 дБ 3:53 06-Der Automat
DR9 -0.49 дБ -10.89 дБ 3:25 07-Wahre Liebe
DR9 -0.52 дБ -10.56 дБ 3:59 08-Scherben der Nacht
DR9 -0.47 дБ -11.40 дБ 4:03 09-Stripped
DR10 -0.50 дБ -11.41 дБ 3:54 10-Ob ihr Recht habt
DR9 -0.51 дБ -11.21 дБ 3:37 11-Hoch die Hämmer V.2/2015
DR9 -0.50 дБ -10.99 дБ 3:48 12-So what
DR9 -0.53 дБ -10.80 дБ 4:14 13-Musique Electronique
DR9 -0.45 дБ -10.90 дБ 4:58 14-Anthropozän [Remix by MRDTC]
DR9 -0.55 дБ -10.62 дБ 4:50 15-Der Automat [Remix by Rector Scanner]
DR6 -0.53 дБ -8.23 дБ 4:06 16-Kontrovers [Remix by Leather Strip]
DR9 -0.55 дБ -11.11 дБ 3:48 17-Anthropozän [Remix by Serpents]
DR9 -0.55 дБ -10.71 дБ 4:03 18-Monotonie [Remix by Plastic Noise Experience]
--------------------------------------------------------------------------------
Количество треков: 18
Реальные значения DR: DR9
Частота: 44100 Гц
Каналов: 2
Разрядность: 16
Битрейт: 924 кбит/с
Кодек: FLAC
================================================================================
--------------------------------------------------------------------------------
Анализ: AD:keY / Anthropozän (Bonus Tracks Version)
--------------------------------------------------------------------------------
DR Пики RMS Продолжительность трека
--------------------------------------------------------------------------------
DR6 -1.51 дБ -9.77 дБ 4:35 19-Monotonie (Remix by OverUnity)
DR14 -6.33 дБ -24.33 дБ 0:27 20-Anthropozaen (Outro)
--------------------------------------------------------------------------------
Количество треков: 2
Реальные значения DR: DR10
Частота: 44100 Гц
Каналов: 2
Разрядность: 24
Битрейт: 943 кбит/с
Кодек: FLAC
================================================================================

Код:
-----------------------
DON'T MODIFY THIS FILE
-----------------------
PERFORMER: auCDtect Task Manager, ver. 1.6.0 RC1 build 1.6.0.1
Copyright (c) 2008-2010 y-soft. All rights reserved
[url=http://y-soft.org]http://y-soft.org[/url]
ANALYZER: auCDtect: CD records authenticity detector, version 0.8.2
Copyright (c) 2004 Oleg Berngardt. All rights reserved.
Copyright (c) 2004 Alexander Djourik. All rights reserved.
FILE: 18 - Monotonie [Remix by Plastic Noise Experience].flac
  Size: 28174920 Hash: 1975B6DB1E32D2723918A32D8B55D08F Accuracy: -m0
  Conclusion: CDDA 100%
  Signature: 9D7E1D1EF0FB0F8466FADA76364CD98137D7EB21
FILE: 17 - Anthropozan [Remix by Serpents].flac
  Size: 26304196 Hash: FF7241612FADA03587C62F6E7AAB52B6 Accuracy: -m0
  Conclusion: CDDA 99%
  Signature: 49CF640346F184BF5699B8916DE5A72DB6103F81
FILE: 16 - Kontrovers [Remix by Leather Strip].flac
  Size: 29490313 Hash: 0D67525847E110CF0399BD29D9BBB63A Accuracy: -m0
  Conclusion: CDDA 100%
  Signature: 5B4A43740DDD7990CEECA1056E7DEDDD374B99AB
FILE: 15 - Der Automat [Remix by Rector Scanner].flac
  Size: 31593978 Hash: A410B48825D8D2674BBAE0AE15CB247A Accuracy: -m0
  Conclusion: MPEG 89%
  Signature: 6F55597237F44DD85ED03922262CEE3AA5D128B5
FILE: 14 - Anthropozan [Remix by MRDTC].flac
  Size: 31555744 Hash: 01A0C838AD63B3C0A283D10E1D2336D7 Accuracy: -m0
  Conclusion: CDDA 100%
  Signature: 3775C624CCF607A0B5D53D525EF5346A076A4C51
FILE: 13 - Musique Electronique.flac
  Size: 31018118 Hash: D431EEEFBB15FDD4E053E02FCA699BF1 Accuracy: -m0
  Conclusion: CDDA 100%
  Signature: B4CE318A14AFC462B4651B4ED3FE6861AA6462C6
FILE: 12 - So what.flac
  Size: 27910639 Hash: BE1D0A9BEC46142D56329E8DBCB24256 Accuracy: -m0
  Conclusion: CDDA 99%
  Signature: 864009B14A059937C3BE35CE0722477DB897AA7F
FILE: 11 - Hoch die Hammer V.2-2015.flac
  Size: 25341928 Hash: 2DF2EBEA92DAEE2FB6765F3BDA19D8A5 Accuracy: -m0
  Conclusion: CDDA 100%
  Signature: D29B26EB1ECE835A87EBEDA941865255EEC18BD9
FILE: 10 - Ob ihr Recht habt.flac
  Size: 29421090 Hash: 537CCEA9AAFC74AB0D277B49E86DB075 Accuracy: -m0
  Conclusion: CDDA 100%
  Signature: 618288828C80861A24B6B76C42C448939AA9C88F
FILE: 09 - Stripped.flac
  Size: 29175645 Hash: 1510C76E699D1624322EF72EF133DAAA Accuracy: -m0
  Conclusion: CDDA 99%
  Signature: 9B37E70D9622F7EF4416F71DDA9E49FA0892A935
FILE: 08 - Scherben der Nacht.flac
  Size: 28344990 Hash: 3D61DA2D5148D78936B4E8AADEA61C6F Accuracy: -m0
  Conclusion: CDDA 100%
  Signature: 9C31A099E9BD3D476A08A80FC98F1B4B32A72EDB
FILE: 07 - Wahre Liebe.flac
  Size: 25802813 Hash: 1B537B7AB80B36C2CA09F942E3B21E42 Accuracy: -m0
  Conclusion: CDDA 100%
  Signature: 17A5110724462F05ED88F0F93B3DC90ADD49609A
FILE: 06 - Der Automat.flac
  Size: 26897491 Hash: 23AEFDF4BA5EA1AB2B652FD1FEAB0CFE Accuracy: -m0
  Conclusion: CDDA 100%
  Signature: CEFC92CD33C83DB3C3402BD77971BF7B41B0BC11
FILE: 05 - Ich will mehr.flac
  Size: 27680205 Hash: 2F1C432BEE27165089E9484A92F8F34C Accuracy: -m0
  Conclusion: CDDA 100%
  Signature: 776F5A6C6B036F5C05952B45F3218BB5C7FCF605
FILE: 04 - Autodynamik.flac
  Size: 29327965 Hash: 12AEE086FB7AFC7D36F547FA7D1ADE35 Accuracy: -m0
  Conclusion: CDDA 100%
  Signature: 5092039330498AA832E8587B327FF018ECABFAAB
FILE: 03 - Monotonie.flac
  Size: 31999392 Hash: 56EFEE9F68DB734ECE0F5B8A698AAE3C Accuracy: -m0
  Conclusion: CDDA 100%
  Signature: B2A8A2A0133D2A4DB092CC743D4BF8261D00797F
FILE: 02 - Kontrovers.flac
  Size: 24556685 Hash: 7A9FA3F35CBA1F606CA951B00C10FAB3 Accuracy: -m0
  Conclusion: CDDA 100%
  Signature: 83C05A3CA702FF2845D9C8522F79990EC214E8A6
FILE: 01 - Anthropozan.flac
  Size: 26219010 Hash: 69658F09518D40397A4B4EA42FD4970D Accuracy: -m0
  Conclusion: CDDA 100%
  Signature: 26E7601B51C8A168D8F5009B99683AD1D6250F54

Правила, инструкции, FAQ!!!
Торрент  Добавлен [26 июн 2020, 17:02] Скачать торрент Магнет ссылка
Скачать торрент
[ Размер 12.31 КБ / Просмотров 3 ]

Статус
Проверен 
 
Размер  542.94 МБ
Приватный: Нет (DHT включён)
.torrent скачан  0
 


     Отправить личное сообщение
   
Страница 1 из 1
Показать сообщения за:  Поле сортировки  
Начать новую тему Ответить на тему


Сейчас этот форум просматривают: нет зарегистрированных пользователей и гости: 0


Вы не можете начинать темы
Вы не можете отвечать на сообщения
Вы не можете редактировать свои сообщения
Вы не можете удалять свои сообщения
Вы не можете добавлять вложения

Перейти:  
cron