Начать новую тему Ответить на тему
Статистика раздачи
Размер: 318.5 МБ | Добавлен: 26 июн 2020, 18:53 | Скачали: 0
Сидеров: 0  [0 байт/сек]    Личеров: 0  [0 байт/сек]
Пред. тема | След. тема 

Автор
Сообщение

СообщениеДобавлено: 26 июн 2020, 18:53 

Ответить с цитатой 

Individual Totem - Aspects Of Theories And Reality

Жанр: EBM / Dark Electro / Industrial
Год выпуска диска: 1994
Страна: Germany
Аудио кодек: FLAC
Тип рипа: tracks+.cue
Битрейт аудио: lossless
Продолжительность: 49:16
Источник: What.CD
Трэклист:
01. Alien Research Inc. (6:28)
02. 21th Century (3:44)
03. Central Gen Manipulation (5:18)
04. Transmission (4:39)
05. Scanning Instructions (4:17)
06. Psi Trading Company (4:59)
07. Finite State Machine (3:59)
08. Self Replictions Systems (6:00)
09. The Invertor (6:03)
10. Genetic Algorythms In Search (3:49)
Music By, Lyrics By - Bernd Madl , Mathias Knopp
Individual Totem @ MySpace
Код:
Exact Audio Copy V0.99 prebeta 4 from 23. January 2008
EAC extraction logfile from 15. September 2008, 16:39
Individual Totem / Aspects Of Theories And Reality
Used drive  : TSSTcorpDVD+-RW TS-H653B   Adapter: 1  ID: 0
Read mode               : Secure
Utilize accurate stream : Yes
Defeat audio cache      : Yes
Make use of C2 pointers : No
Read offset correction                      : 6
Overread into Lead-In and Lead-Out          : No
Fill up missing offset samples with silence : Yes
Delete leading and trailing silent blocks   : No
Null samples used in CRC calculations       : Yes
Used interface                              : Installed external ASPI interface
Gap handling                                : Appended to previous track
Used output format              : User Defined Encoder
Selected bitrate                : 192 kBit/s
Quality                         : High
Add ID3 tag                     : No
Command line compressor         : C:\Program Files\Exact Audio Copy\Flac\flac.exe
Additional command line options : -V -8 -T "artist=%a" -T "title=%t" -T "album=%g" -T "date=%y" -T "tracknumber=%n" -T "genre=%m" %s
TOC of the extracted CD
     Track |   Start  |  Length  | Start sector | End sector
    ---------------------------------------------------------
        1  |  0:00.30 |  6:28.20 |        30    |    29149
        2  |  6:28.50 |  3:43.54 |     29150    |    45928
        3  | 10:12.29 |  5:18.23 |     45929    |    69801
        4  | 15:30.52 |  4:38.66 |     69802    |    90717
        5  | 20:09.43 |  4:16.42 |     90718    |   109959
        6  | 24:26.10 |  4:59.22 |    109960    |   132406
        7  | 29:25.32 |  3:58.59 |    132407    |   150315
        8  | 33:24.16 |  6:00.10 |    150316    |   177325
        9  | 39:24.26 |  6:03.17 |    177326    |   204567
       10  | 45:27.43 |  3:49.02 |    204568    |   221744
Track  1
     Filename C:\A\Individual Totem - Aspects Of Theories And Reality [flac]\01 - Alien Research Inc..wav
     Pre-gap length  0:00:02.40
     Peak level 100.0 %
     Track quality 100.0 %
     Test CRC 5C5F2EFD
     Copy CRC 5C5F2EFD
     Track not present in AccurateRip database
     Copy OK
Track  2
     Filename C:\A\Individual Totem - Aspects Of Theories And Reality [flac]\02 - 21th Century.wav
     Peak level 94.8 %
     Track quality 100.0 %
     Test CRC E6E159A2
     Copy CRC E6E159A2
     Track not present in AccurateRip database
     Copy OK
Track  3
     Filename C:\A\Individual Totem - Aspects Of Theories And Reality [flac]\03 - Central Gen Manipulation.wav
     Peak level 98.8 %
     Track quality 100.0 %
     Test CRC 08EB6AFB
     Copy CRC 08EB6AFB
     Track not present in AccurateRip database
     Copy OK
Track  4
     Filename C:\A\Individual Totem - Aspects Of Theories And Reality [flac]\04 - Transmission.wav
     Peak level 100.0 %
     Track quality 100.0 %
     Test CRC C5054FC2
     Copy CRC C5054FC2
     Track not present in AccurateRip database
     Copy OK
Track  5
     Filename C:\A\Individual Totem - Aspects Of Theories And Reality [flac]\05 - Scanning Instructions.wav
     Peak level 100.0 %
     Track quality 100.0 %
     Test CRC 273FD952
     Copy CRC 273FD952
     Track not present in AccurateRip database
     Copy OK
Track  6
     Filename C:\A\Individual Totem - Aspects Of Theories And Reality [flac]\06 - Psi Trading Company.wav
     Peak level 100.0 %
     Track quality 100.0 %
     Test CRC AFD21EDA
     Copy CRC AFD21EDA
     Track not present in AccurateRip database
     Copy OK
Track  7
     Filename C:\A\Individual Totem - Aspects Of Theories And Reality [flac]\07 - Finite State Machine.wav
     Peak level 100.0 %
     Track quality 100.0 %
     Test CRC BBAD03AD
     Copy CRC BBAD03AD
     Track not present in AccurateRip database
     Copy OK
Track  8
     Filename C:\A\Individual Totem - Aspects Of Theories And Reality [flac]\08 - Self Replictions Systems.wav
     Peak level 100.0 %
     Track quality 100.0 %
     Test CRC 9D6E2FC3
     Copy CRC 9D6E2FC3
     Track not present in AccurateRip database
     Copy OK
Track  9
     Filename C:\A\Individual Totem - Aspects Of Theories And Reality [flac]\09 - The Invertor.wav
     Peak level 100.0 %
     Track quality 100.0 %
     Test CRC 77270880
     Copy CRC 77270880
     Track not present in AccurateRip database
     Copy OK
Track 10
     Filename C:\A\Individual Totem - Aspects Of Theories And Reality [flac]\10 - Genetic Algorythms In Search.wav
     Peak level 100.0 %
     Track quality 100.0 %
     Test CRC 12540F04
     Copy CRC 12540F04
     Track not present in AccurateRip database
     Copy OK
None of the tracks are present in the AccurateRip database
No errors occurred
End of status report
Правила, инструкции, FAQ!!!
Торрент  Добавлен [26 июн 2020, 18:53] Скачать торрент Магнет ссылка
Скачать торрент
[ Размер 13.77 КБ / Просмотров 10 ]

Статус
Проверен 
 
Размер  318.5 МБ
Приватный: Нет (DHT включён)
.torrent скачан  0
 


     Отправить личное сообщение
   
Страница 1 из 1
Показать сообщения за:  Поле сортировки  
Начать новую тему Ответить на тему


Сейчас этот форум просматривают: нет зарегистрированных пользователей и гости: 0


Вы не можете начинать темы
Вы не можете отвечать на сообщения
Вы не можете редактировать свои сообщения
Вы не можете удалять свои сообщения
Вы не можете добавлять вложения

Перейти:  
cron