Начать новую тему Ответить на тему
Статистика раздачи
Размер: 328.43 МБ | Добавлен: 26 июн 2020, 18:53 | Скачали: 0
Сидеров: 0  [0 байт/сек]    Личеров: 0  [0 байт/сек]
Пред. тема | След. тема 

Автор
Сообщение

СообщениеДобавлено: 26 июн 2020, 18:53 

Ответить с цитатой 

Extinction Front / Destruction Show
Жанр: EBM, Dark Electro, Industrial
Носитель: CD
Страна-производитель диска (релиза): Germany
Год издания: 2010
Издатель (лейбл): Danse Macabre
Номер по каталогу: none
Страна исполнителя (группы): Spain
Аудиокодек: FLAC (*.flac)
Тип рипа: tracks+.cue
Битрейт аудио: lossless
Продолжительность: 00:45:52
Источник (релизер): What.CD
Наличие сканов в содержимом раздачи: нет
Треклист:
01 - Second Penetration
02 - Shut the Fuck Up
03 - Destruction Show
04 - The Final Attack
05 - 3 2 1, Boom!
06 - Capsula Activada
07 - Roll the Dice
08 - Integrity of Behaviour
09 - The Final Attack (Soman Remix)
10 - Shut the Fuck Up (Imperative Reaction Remix)
11 - No Name
Код:
Exact Audio Copy V1.0 beta 3 from 29. August 2011
EAC extraction logfile from 29. December 2012, 21:43
Extinction Front / Destruction Show
Used drive  : TSSTcorpCDDVDW SH-224BB   Adapter: 1  ID: 0
Read mode               : Secure
Utilize accurate stream : Yes
Defeat audio cache      : Yes
Make use of C2 pointers : No
Read offset correction                      : 6
Overread into Lead-In and Lead-Out          : No
Fill up missing offset samples with silence : Yes
Delete leading and trailing silent blocks   : No
Null samples used in CRC calculations       : Yes
Used interface                              : Native Win32 interface for Win NT & 2000
Gap handling                                : Appended to previous track
Used output format              : User Defined Encoder
Selected bitrate                : 1024 kBit/s
Quality                         : High
Add ID3 tag                     : No
Command line compressor         : C:\Program Files (x86)\Exact Audio Copy\Flac\flac.exe
Additional command line options : -8 -V -T "ARTIST=%artist%" -T "TITLE=%title%" -T "ALBUM=%albumtitle%" -T "DATE=%year%" -T "TRACKNUMBER=%tracknr%" -T "GENRE=%genre%" -T "PERFORMER=%albuminterpret%" -T "COMPOSER=%composer%" %haslyrics%--tag-from-file=LYRICS="%lyricsfile%"%haslyrics% -T "ALBUMARTIST=%albumartist%" -T "DISCNUMBER=%cdnumber%" -T "TOTALDISCS=%totalcds%" -T "TOTALTRACKS=%numtracks%" -T "COMMENT=%comment%" %source% -o %dest%
TOC of the extracted CD
     Track |   Start  |  Length  | Start sector | End sector
    ---------------------------------------------------------
        1  |  0:00.00 |  1:48.13 |         0    |     8112
        2  |  1:48.13 |  4:09.01 |      8113    |    26788
        3  |  5:57.14 |  5:02.55 |     26789    |    49493
        4  | 10:59.69 |  4:51.52 |     49494    |    71370
        5  | 15:51.46 |  4:46.72 |     71371    |    92892
        6  | 20:38.43 |  1:26.42 |     92893    |    99384
        7  | 22:05.10 |  4:41.43 |     99385    |   120502
        8  | 26:46.53 |  4:15.20 |    120503    |   139647
        9  | 31:01.73 |  5:18.65 |    139648    |   163562
       10  | 36:20.63 |  3:44.26 |    163563    |   180388
       11  | 40:05.14 |  5:47.00 |    180389    |   206413
       12  | 48:24.14 | 13:06.41 |    217814    |   276804
Track  1
     Filename D:\Musik\Extinction Front - Destruction Show (2010) [FLAC]\01 - Second Penetration.wav
     Pre-gap length  0:00:02.00
     Peak level 98.8 %
     Extraction speed 3.9 X
     Track quality 100.0 %
     Test CRC B553F941
     Copy CRC B553F941
     Track not present in AccurateRip database
     Copy OK
Track  2
     Filename D:\Musik\Extinction Front - Destruction Show (2010) [FLAC]\02 - Shut the Fuck Up.wav
     Peak level 98.9 %
     Extraction speed 4.0 X
     Track quality 99.9 %
     Test CRC 89F014A9
     Copy CRC 89F014A9
     Track not present in AccurateRip database
     Copy OK
Track  3
     Filename D:\Musik\Extinction Front - Destruction Show (2010) [FLAC]\03 - Destruction Show.wav
     Pre-gap length  0:00:01.74
     Peak level 98.9 %
     Extraction speed 5.5 X
     Track quality 100.0 %
     Test CRC EBF758AE
     Copy CRC EBF758AE
     Track not present in AccurateRip database
     Copy OK
Track  4
     Filename D:\Musik\Extinction Front - Destruction Show (2010) [FLAC]\04 - The Final Attack.wav
     Pre-gap length  0:00:01.74
     Peak level 98.9 %
     Extraction speed 6.0 X
     Track quality 100.0 %
     Test CRC 8B8711B5
     Copy CRC 8B8711B5
     Track not present in AccurateRip database
     Copy OK
Track  5
     Filename D:\Musik\Extinction Front - Destruction Show (2010) [FLAC]\05 - 3 2 1, Boom!.wav
     Pre-gap length  0:00:01.74
     Peak level 98.9 %
     Extraction speed 6.3 X
     Track quality 100.0 %
     Test CRC 74B54A56
     Copy CRC 74B54A56
     Track not present in AccurateRip database
     Copy OK
Track  6
     Filename D:\Musik\Extinction Front - Destruction Show (2010) [FLAC]\06 - Capsula Activada.wav
     Pre-gap length  0:00:01.74
     Peak level 98.8 %
     Extraction speed 5.2 X
     Track quality 100.0 %
     Test CRC A52F76FA
     Copy CRC A52F76FA
     Track not present in AccurateRip database
     Copy OK
Track  7
     Filename D:\Musik\Extinction Front - Destruction Show (2010) [FLAC]\07 - Roll the Dice.wav
     Pre-gap length  0:00:01.74
     Peak level 98.8 %
     Extraction speed 6.8 X
     Track quality 100.0 %
     Test CRC BEEB445F
     Copy CRC BEEB445F
     Track not present in AccurateRip database
     Copy OK
Track  8
     Filename D:\Musik\Extinction Front - Destruction Show (2010) [FLAC]\08 - Integrity of Behaviour.wav
     Pre-gap length  0:00:01.74
     Peak level 98.9 %
     Extraction speed 5.7 X
     Track quality 99.9 %
     Test CRC 85C0B6AB
     Copy CRC 85C0B6AB
     Track not present in AccurateRip database
     Copy OK
Track  9
     Filename D:\Musik\Extinction Front - Destruction Show (2010) [FLAC]\09 - The Final Attack (Soman Remix).wav
     Pre-gap length  0:00:01.74
     Peak level 100.0 %
     Extraction speed 7.5 X
     Track quality 100.0 %
     Test CRC 4DDDF9BC
     Copy CRC 4DDDF9BC
     Track not present in AccurateRip database
     Copy OK
Track 10
     Filename D:\Musik\Extinction Front - Destruction Show (2010) [FLAC]\10 - Shut the Fuck Up (Imperative Reaction Remix).wav
     Pre-gap length  0:00:01.74
     Peak level 98.9 %
     Extraction speed 7.5 X
     Track quality 100.0 %
     Test CRC FDC0D358
     Copy CRC FDC0D358
     Track not present in AccurateRip database
     Copy OK
Track 11
     Filename D:\Musik\Extinction Front - Destruction Show (2010) [FLAC]\11 - No Name.wav
     Pre-gap length  0:00:01.74
     Peak level 11.3 %
     Extraction speed 8.2 X
     Track quality 100.0 %
     Test CRC E215C861
     Copy CRC E215C861
     Track not present in AccurateRip database
     Copy OK
None of the tracks are present in the AccurateRip database
No errors occurred
End of status report
---- CUETools DB Plugin V2.1.3
[CTDB TOCID: Qfixub1DQgzhtE4eTh4NSrVJW4U-] found, Submit result: already submitted
[2ad5bfe7] (1/1) Accurately ripped
==== Log checksum 7BA5DE93F1DABF256AFAB1BEC9A13EB32C582A422D0A7BE43F52B60DDE9F803E ====
Код:
REM GENRE Instrumental
REM DATE 2010
REM DISCID 930E6A0C
REM COMMENT "ExactAudioCopy v1.0b3"
PERFORMER "Extinction Front"
TITLE "Destruction Show"
FILE "01 - Second Penetration.wav" WAVE
  TRACK 01 AUDIO
    TITLE "Second Penetration"
    PERFORMER "Extinction Front"
    INDEX 01 00:00:00
FILE "02 - Shut the Fuck Up.wav" WAVE
  TRACK 02 AUDIO
    TITLE "Shut the Fuck Up"
    PERFORMER "Extinction Front"
    INDEX 01 00:00:00
  TRACK 03 AUDIO
    TITLE "Destruction Show"
    PERFORMER "Extinction Front"
    INDEX 00 04:07:02
FILE "03 - Destruction Show.wav" WAVE
    INDEX 01 00:00:00
  TRACK 04 AUDIO
    TITLE "The Final Attack"
    PERFORMER "Extinction Front"
    INDEX 00 05:00:56
FILE "04 - The Final Attack.wav" WAVE
    INDEX 01 00:00:00
  TRACK 05 AUDIO
    TITLE "3 2 1, Boom!"
    PERFORMER "Extinction Front"
    INDEX 00 04:49:53
FILE "05 - 3 2 1, Boom!.wav" WAVE
    INDEX 01 00:00:00
  TRACK 06 AUDIO
    TITLE "Capsula Activada"
    PERFORMER "Extinction Front"
    INDEX 00 04:44:73
FILE "06 - Capsula Activada.wav" WAVE
    INDEX 01 00:00:00
  TRACK 07 AUDIO
    TITLE "Roll the Dice"
    PERFORMER "Extinction Front"
    INDEX 00 01:24:43
FILE "07 - Roll the Dice.wav" WAVE
    INDEX 01 00:00:00
  TRACK 08 AUDIO
    TITLE "Integrity of Behaviour"
    PERFORMER "Extinction Front"
    INDEX 00 04:39:44
FILE "08 - Integrity of Behaviour.wav" WAVE
    INDEX 01 00:00:00
  TRACK 09 AUDIO
    TITLE "The Final Attack (Soman Remix)"
    PERFORMER "Extinction Front"
    INDEX 00 04:13:21
FILE "09 - The Final Attack (Soman Remix).wav" WAVE
    INDEX 01 00:00:00
  TRACK 10 AUDIO
    TITLE "Shut the Fuck Up (Imperative Reaction Remix)"
    PERFORMER "Extinction Front"
    INDEX 00 05:16:66
FILE "10 - Shut the Fuck Up (Imperative Reaction Remix).wav" WAVE
    INDEX 01 00:00:00
  TRACK 11 AUDIO
    TITLE "No Name"
    PERFORMER "Extinction Front"
    INDEX 00 03:42:27
FILE "11 - No Name.wav" WAVE
    INDEX 01 00:00:00
  TRACK 12 MODEx/2xxx
    TITLE "Track12"
    PERFORMER "Extinction Front"
    INDEX 00 05:47:00
Правила, инструкции, FAQ!!!
Торрент  Добавлен [26 июн 2020, 18:53] Скачать торрент Магнет ссылка
Скачать торрент
[ Размер 14.2 КБ / Просмотров 11 ]

Статус
Проверен 
 
Размер  328.43 МБ
Приватный: Нет (DHT включён)
.torrent скачан  0
 


     Отправить личное сообщение
   
Страница 1 из 1
Показать сообщения за:  Поле сортировки  
Начать новую тему Ответить на тему


Сейчас этот форум просматривают: нет зарегистрированных пользователей и гости: 0


Вы не можете начинать темы
Вы не можете отвечать на сообщения
Вы не можете редактировать свои сообщения
Вы не можете удалять свои сообщения
Вы не можете добавлять вложения

Перейти:  
cron