Начать новую тему Ответить на тему
Статистика раздачи
Размер: 570.25 МБ | Добавлен: 26 июн 2020, 17:03 | Скачали: 0
Сидеров: 0  [0 байт/сек]    Личеров: 0  [0 байт/сек]
Пред. тема | След. тема 

Автор
Сообщение

СообщениеДобавлено: 26 июн 2020, 17:03 

Ответить с цитатой 

VA - A Compilation Of The German Labels NoiTekk & Black Rain
Жанр: EBM/Dark Electro/Industrial
Год выпуска диска: 2007
Страна: Germany
Производитель диска: Россия. Гравитатор ГРР 044
Аудио кодек: FLAC
Тип рипа: tracks+.cue
Битрейт аудио: lossless
Продолжительность: 1:10:48
Трэклист:
01. Die Sektor - When Porcelain Bleeds <6:11>
02. Life Cried - As We Decay <5:05>
03. Psyclon Nine - Anaesthetic (For The Pathetic) <4:03>
04. IWR - Carnivore <3:47>
05. Cyborg Attack - Stoerf***tok <4:47>
06. Distorted Memory - Loss Of Faith <5:29>
07. Tyske Ludder - Canossa <4:34>
08. Feindflug - AK 47 <7:10>
09. Dawn Of Ashes - Abyss <5:25>
10. Supreme Court - Voice Of Lying <4:02>
11. FGFC820 - Martydom <5:15>
12. Vigilante - Victims <3:10>
13. Tactical Sekt - Syncope <5:50>
14. Violent Entity - Cold As Ice <6:00>
Доп. информация:
Код:
Exact Audio Copy V0.99 prebeta 4 from 23. January 2008
EAC extraction logfile from 5. December 2008, 15:11
Various Artists / A Compilation Of The German Labels NoiTekk & Black Rain
Used drive  : PIONEER DVD-RW  DVR-212   Adapter: 0  ID: 1
Read mode               : Secure
Utilize accurate stream : Yes
Defeat audio cache      : Yes
Make use of C2 pointers : No
Read offset correction                      : 48
Overread into Lead-In and Lead-Out          : No
Fill up missing offset samples with silence : Yes
Delete leading and trailing silent blocks   : No
Null samples used in CRC calculations       : Yes
Used interface                              : Native Win32 interface for Win NT & 2000
Gap handling                                : Appended to previous track
Used output format              : User Defined Encoder
Selected bitrate                : 1024 kBit/s
Quality                         : High
Add ID3 tag                     : No
Command line compressor         : C:\Program Files\foobar2000\flac-1.2.1-win\bin\flac.exe
Additional command line options : -V -8 -T "artist=%a" -T "title=%t" -T "album=%g" -T "date=%y" -T "tracknumber=%n" -T "genre=%m" %s
TOC of the extracted CD
     Track |   Start  |  Length  | Start sector | End sector
    ---------------------------------------------------------
        1  |  0:00.00 |  6:10.52 |         0    |    27801
        2  |  6:10.52 |  5:05.09 |     27802    |    50685
        3  | 11:15.61 |  4:02.58 |     50686    |    68893
        4  | 15:18.44 |  3:47.25 |     68894    |    85943
        5  | 19:05.69 |  4:47.34 |     85944    |   107502
        6  | 23:53.28 |  5:29.26 |    107503    |   132203
        7  | 29:22.54 |  4:34.08 |    132204    |   152761
        8  | 33:56.62 |  7:10.31 |    152762    |   185042
        9  | 41:07.18 |  5:25.00 |    185043    |   209417
       10  | 46:32.18 |  4:01.69 |    209418    |   227561
       11  | 50:34.12 |  5:14.65 |    227562    |   251176
       12  | 55:49.02 |  3:09.58 |    251177    |   265409
       13  | 58:58.60 |  5:49.39 |    265410    |   291623
       14  | 64:48.24 |  6:00.01 |    291624    |   318624
Track  1
     Filename C:\Documents and Settings\Hiekka\Рабочий стол\eac rips\va\01 - When Porcelain Bleeds.wav
     Pre-gap length  0:00:02.00
     Peak level 98.9 %
     Track quality 100.0 %
     Test CRC 78BFC1CD
     Copy CRC 78BFC1CD
     Track not present in AccurateRip database
     Copy OK
Track  2
     Filename C:\Documents and Settings\Hiekka\Рабочий стол\eac rips\va\02 - As We Decay.wav
     Pre-gap length  0:00:01.98
     Peak level 94.8 %
     Track quality 100.0 %
     Test CRC 2AD96B9E
     Copy CRC 2AD96B9E
     Track not present in AccurateRip database
     Copy OK
Track  3
     Filename C:\Documents and Settings\Hiekka\Рабочий стол\eac rips\va\03 - Anaesthetic (For The Pathetic).wav
     Pre-gap length  0:00:02.01
     Peak level 89.9 %
     Track quality 100.0 %
     Test CRC 63ED71D6
     Copy CRC 63ED71D6
     Track not present in AccurateRip database
     Copy OK
Track  4
     Filename C:\Documents and Settings\Hiekka\Рабочий стол\eac rips\va\04 - Carnivore.wav
     Pre-gap length  0:00:02.24
     Peak level 99.5 %
     Track quality 100.0 %
     Test CRC 50C835C7
     Copy CRC 50C835C7
     Track not present in AccurateRip database
     Copy OK
Track  5
     Filename C:\Documents and Settings\Hiekka\Рабочий стол\eac rips\va\05 - Stoerfxxxtok.wav
     Pre-gap length  0:00:01.96
     Peak level 78.5 %
     Track quality 100.0 %
     Test CRC D2FEEFF8
     Copy CRC D2FEEFF8
     Track not present in AccurateRip database
     Copy OK
Track  6
     Filename C:\Documents and Settings\Hiekka\Рабочий стол\eac rips\va\06 - Loss Of Faith.wav
     Pre-gap length  0:00:01.68
     Peak level 99.8 %
     Track quality 100.0 %
     Test CRC 8CC5A3F3
     Copy CRC 8CC5A3F3
     Track not present in AccurateRip database
     Copy OK
Track  7
     Filename C:\Documents and Settings\Hiekka\Рабочий стол\eac rips\va\07 - Canossa.wav
     Pre-gap length  0:00:01.80
     Peak level 95.6 %
     Track quality 100.0 %
     Test CRC C9A9FAEE
     Copy CRC C9A9FAEE
     Track not present in AccurateRip database
     Copy OK
Track  8
     Filename C:\Documents and Settings\Hiekka\Рабочий стол\eac rips\va\08 - AK 47.wav
     Pre-gap length  0:00:02.17
     Peak level 95.1 %
     Track quality 100.0 %
     Test CRC D2C907AD
     Copy CRC D2C907AD
     Track not present in AccurateRip database
     Copy OK
Track  9
     Filename C:\Documents and Settings\Hiekka\Рабочий стол\eac rips\va\09 - Abyss.wav
     Pre-gap length  0:00:01.72
     Peak level 81.2 %
     Track quality 100.0 %
     Test CRC D07EBA41
     Copy CRC D07EBA41
     Track not present in AccurateRip database
     Copy OK
Track 10
     Filename C:\Documents and Settings\Hiekka\Рабочий стол\eac rips\va\10 - Voice Of Lying.wav
     Pre-gap length  0:00:02.04
     Peak level 94.4 %
     Track quality 100.0 %
     Test CRC 81626DA4
     Copy CRC 81626DA4
     Track not present in AccurateRip database
     Copy OK
Track 11
     Filename C:\Documents and Settings\Hiekka\Рабочий стол\eac rips\va\11 - Martydom.wav
     Pre-gap length  0:00:01.30
     Peak level 99.8 %
     Track quality 100.0 %
     Test CRC 8B71D347
     Copy CRC 8B71D347
     Track not present in AccurateRip database
     Copy OK
Track 12
     Filename C:\Documents and Settings\Hiekka\Рабочий стол\eac rips\va\12 - Victims.wav
     Pre-gap length  0:00:01.94
     Peak level 94.8 %
     Track quality 100.0 %
     Test CRC 638ED9AB
     Copy CRC 638ED9AB
     Track not present in AccurateRip database
     Copy OK
Track 13
     Filename C:\Documents and Settings\Hiekka\Рабочий стол\eac rips\va\13 - Syncope.wav
     Pre-gap length  0:00:02.61
     Peak level 95.9 %
     Track quality 100.0 %
     Test CRC B3D5BD28
     Copy CRC B3D5BD28
     Track not present in AccurateRip database
     Copy OK
Track 14
     Filename C:\Documents and Settings\Hiekka\Рабочий стол\eac rips\va\14 - Cold As Ice.wav
     Pre-gap length  0:00:01.78
     Peak level 96.1 %
     Track quality 100.0 %
     Test CRC 8D6AEF99
     Copy CRC 8D6AEF99
     Track not present in AccurateRip database
     Copy OK
None of the tracks are present in the AccurateRip database
No errors occurred
End of status report
Этот сборник вышел из-под крыла консорциума германских электро-лейблов NoiTekk и Black Rain и представляет собой своеобразный «отчет о проделанной работе» за последний год. На нем представлены самые «сливки» NoiTekk/Black Rain, среди которых есть как уже знакомые российским слушателям группы (благодаря изданиям Gravitator и Irond), такие как DIE SEKTOR, PSYCLON NINE, DISTORTED MEMORY, DAWN OF ASHES, FGFC820, TACTICAL SEKT, FEINDFLUG и VIGILANTE, а также треки коллективов, пока еще не выходивших в России: LIFE CRIED, CYBORG ATTACK, IWR, TYSKE LUDDER, SUPREME COURT и VIOLENT ENTITY. В компиляции представлены треки 14 групп.
Итак, слушателя ждет часовая ритмическо-синтезаторная психическая атака и дисторшированные залпы тяжелой артиллерии NoiTekk и Black Rain. Подборка композиций составлена таким образом, чтобы представить как можно больший спектр Dark Electro, old school EBM и Industrial звучания, благодаря чему слушатель может за один раз сформировать наиболее объемную картину этих набирающих популярность жанров. Вероятно, особую ценность подобранный материал должен представлять для любителей электронного «тяжеляка», потому что на диске собраны только качественные, забойные и зубодробительные треки с зашкаливающей мрачной энергетикой, пылающей злобой вокалами и неудержимыми ритмами. Каждая композиция, представленная на сборнике – клубный боевик, исполненный в разных ключах: от милитаристов FEINDFLUG, CYBORG ATTACK и FGFC820, до мрачных LIFE CRIED и IWR.
Хотите расширить свой музыкальный кругозор — обязательно послушайте данную компиляцию. Материал сборника будет интересен как для новичка, открывающего для себя неповторимый мир электроиндастриала, так и для знатока стиля, желающего обнаружить эксклюзивные треки или познакомиться с новой ранее неизвестной группой.
Диск выпущен в России по лицензии NoiTekk / Black Rain Records (Германия).
Правила, инструкции, FAQ!!!
Торрент  Добавлен [26 июн 2020, 17:03] Скачать торрент Магнет ссылка
Скачать торрент
[ Размер 12.86 КБ / Просмотров 4 ]

Статус
Проверен 
 
Размер  570.25 МБ
Приватный: Нет (DHT включён)
.torrent скачан  0
 


     Отправить личное сообщение
   
Страница 1 из 1
Показать сообщения за:  Поле сортировки  
Начать новую тему Ответить на тему


Сейчас этот форум просматривают: нет зарегистрированных пользователей и гости: 0


Вы не можете начинать темы
Вы не можете отвечать на сообщения
Вы не можете редактировать свои сообщения
Вы не можете удалять свои сообщения
Вы не можете добавлять вложения

Перейти:  
cron