Начать новую тему Ответить на тему
Статистика раздачи
Размер: 1.06 ГБ | Добавлен: 26 июн 2020, 20:22 | Скачали: 0
Сидеров: 0  [0 байт/сек]    Личеров: 0  [0 байт/сек]
Пред. тема | След. тема 

Автор
Сообщение

СообщениеДобавлено: 26 июн 2020, 20:22 

Ответить с цитатой 

Aiboforcen - Sense & Nonsense




• Жанр: EBM | Dark Electro | Industrial
• Носитель: WEB
• Год издания: 2018
• Издатель (лейбл) Alfa Matrix
• Номер по каталогу: SQD
• Страна-производитель релиза: Belgium
• Страна исполнителя (группы): Belgium
• Аудиокодек: FLAC (*.flac)
• Тип рипа: tracks
• Продолжительность: 02:18:36
• Источник (релизер):NTDMMANIAC ®
• WEB релиз: bandcamp
• Наличие сканов: front

01 - We Woke Up The Dragon (00:04:42)
02 - Come Clean (00:05:18)
03 - Tears (00:05:38)
04 - Hall Of Mirrors (00:05:06)
05 - Guilty Eyes (00:05:53)
06 - Caresse (00:05:05)
07 - In My Arms (00:05:50)
08 - Loud (00:05:08)
09 - Shallow Then Halo (00:04:47)
10 - Etching Herself In Acid (00:04:27)
11 - Ablation À Vif (00:03:49)
12 - The Arrival (00:06:15)
13 - Nos Silences (00:04:50)
14 - Ritual Control (00:04:55)
15 - Life In The Valley Of Death (00:05:26)
16 - Sense & Nonsense (00:03:41)
17 - We Woke Up The Dragon (Unlocked) (00:04:38)
18 - Come Clean (Diffuzion Rmx) (00:04:05)
19 - Tears (Aesthetische Clean Rmx) (00:04:55)
20 - Nos Silences (Moonrise Edit) (00:04:57)
21 - Numb Hearts (00:04:15)
22 - Come Clean (Neikka Rpm Rmx) (00:03:50)
23 - We Woke Up The Dragon (Daniel B. Prothèse Rmx) (00:04:44)
24 - Come Clean (Implant Never Comes Clean Rmx) (00:04:38)
25 - Tears (Psy’aviah Rmx) (00:04:19)
26 - Lost In Translation (00:05:03)
27 - In My Arms (Tentacles Edit) (00:05:53)
28 - Come Clean (Kilmarth Rmx) (00:06:14)

foobar2000 1.2.5 / Замер динамического диапазона (DR) 1.1.1
Дата отчёта: 2018-06-26 21:12:52
--------------------------------------------------------------------------------
Анализ: Aiboforcen feat. Damasius of Mondträume / Sense & Nonsense (Bonus Tracks Version) (1)
Aiboforcen feat. Dan Barrett of Venal Flesh / Sense & Nonsense (Bonus Tracks Version) (2)
Aiboforcen feat. Diana of Junksista / Sense & Nonsense (Bonus Tracks Version) (3)
Aiboforcen feat. Jan Dewulf of Mildreda / Sense & Nonsense (Bonus Tracks Version) (4)
Aiboforcen feat. Jean-Luc De Meyer / Sense & Nonsense (Bonus Tracks Version) (5-9)
Aiboforcen feat. LadyHell of Lovelorn Dolls / Sense & Nonsense (Bonus Tracks Version) (10)
Aiboforcen feat. Lars Bass of Kant Kino / Sense & Nonsense (Bonus Tracks Version) (11)
Aiboforcen feat. Mari Kattman / Sense & Nonsense (Bonus Tracks Version) (12-14)
--------------------------------------------------------------------------------
DR Пики RMS Продолжительность трека
--------------------------------------------------------------------------------
DR7 -0.39 дБ -7.99 дБ 5:54 05-Guilty Eyes
DR7 -0.39 дБ -8.75 дБ 3:49 11-Ablation À Vif
DR7 -0.29 дБ -9.08 дБ 4:15 21-Numb Hearts
DR7 -0.39 дБ -8.28 дБ 4:48 09-Shallow Then Halo
DR7 -0.39 дБ -7.93 дБ 4:42 01-We Woke Up The Dragon
DR7 -0.39 дБ -8.95 дБ 5:09 08-Loud
DR7 -0.39 дБ -8.36 дБ 6:16 12-The Arrival
DR7 -0.29 дБ -8.20 дБ 4:39 17-We Woke Up The Dragon (Unlocked)
DR8 -0.21 дБ -8.81 дБ 4:44 23-We Woke Up The Dragon (Daniel B. Prothèse Rmx)
DR8 -0.29 дБ -9.07 дБ 5:04 26-Lost In Translation
DR7 -0.39 дБ -7.74 дБ 4:28 10-Etching Herself In Acid
DR6 -0.39 дБ -7.54 дБ 5:38 03-Tears
DR6 -0.39 дБ -7.89 дБ 5:50 07-In My Arms
DR3 -3.26 дБ -7.72 дБ 4:55 19-Tears (Aesthetische Clean Rmx)
--------------------------------------------------------------------------------
Количество треков: 14
Реальные значения DR: DR7
Частота: 44100 Гц
Каналов: 2
Разрядность: 16
Битрейт: 1086 кбит/с
Кодек: FLAC
================================================================================
--------------------------------------------------------------------------------
Статистика для: 25-Tears (Psy’Aviah Rmx)
Количество сэмплов: 11457077
Продолжительность: 4:20
--------------------------------------------------------------------------------
Левый Правый
Пики: -0.29 дБ --- -0.29 дБ
Средний RMS: -8.78 дБ --- -8.68 дБ
DR канала: 7.59 дБ --- 7.51 дБ
--------------------------------------------------------------------------------
Реальные значения DR: DR8
Частота: 44100 Гц
Каналов: 2
Разрядность: 24
Битрейт: 1769 кбит/с
Кодек: FLAC
================================================================================
--------------------------------------------------------------------------------
Анализ: Aiboforcen feat. Mari Kattman / Sense & Nonsense (Bonus Tracks Version) (1)
Aiboforcen / Sense & Nonsense (Bonus Tracks Version) (2-8)
--------------------------------------------------------------------------------
DR Пики RMS Продолжительность трека
--------------------------------------------------------------------------------
DR8 -0.29 дБ -8.92 дБ 5:54 27-In My Arms (Tentacles Edit)
DR7 -0.39 дБ -7.87 дБ 5:18 02-Come Clean
DR7 -0.39 дБ -7.76 дБ 5:07 04-Hall Of Mirrors
DR7 -0.39 дБ -8.56 дБ 5:06 06-Caresse
DR7 -0.39 дБ -8.42 дБ 4:51 13-Nos Silences
DR7 -0.39 дБ -7.70 дБ 4:56 14-Ritual Control
DR6 -0.39 дБ -7.76 дБ 5:27 15-Life In The Valley Of Death
DR8 -0.29 дБ -10.72 дБ 3:42 16-Sense & Nonsense
--------------------------------------------------------------------------------
Количество треков: 8
Реальные значения DR: DR7
Частота: 44100 Гц
Каналов: 2
Разрядность: 16
Битрейт: 853 кбит/с
Кодек: FLAC
================================================================================
--------------------------------------------------------------------------------
Статистика для: 18-Come Clean (Diffuzion Rmx)
Количество сэмплов: 10822144
Продолжительность: 4:05
--------------------------------------------------------------------------------
Левый Правый
Пики: -0.29 дБ --- -0.29 дБ
Средний RMS: -8.58 дБ --- -8.58 дБ
DR канала: 7.49 дБ --- 7.49 дБ
--------------------------------------------------------------------------------
Реальные значения DR: DR7
Частота: 44100 Гц
Каналов: 2
Разрядность: 24
Битрейт: 1677 кбит/с
Кодек: FLAC
================================================================================
--------------------------------------------------------------------------------
Анализ: Aiboforcen / Sense & Nonsense (Bonus Tracks Version)
--------------------------------------------------------------------------------
DR Пики RMS Продолжительность трека
--------------------------------------------------------------------------------
DR7 -0.29 дБ -8.75 дБ 4:57 20-Nos Silences (Moonrise Edit)
DR8 -0.29 дБ -9.17 дБ 3:51 22-Come Clean (Neikka RPM Rmx)
--------------------------------------------------------------------------------
Количество треков: 2
Реальные значения DR: DR7
Частота: 44100 Гц
Каналов: 2
Разрядность: 16
Битрейт: 922 кбит/с
Кодек: FLAC
================================================================================
--------------------------------------------------------------------------------
Анализ: Aiboforcen / Sense & Nonsense (Bonus Tracks Version)
--------------------------------------------------------------------------------
DR Пики RMS Продолжительность трека
--------------------------------------------------------------------------------
DR8 -0.29 дБ -9.30 дБ 4:38 24-Come Clean (Implant Never Comes Clean Rmx)
DR7 -0.29 дБ -9.20 дБ 6:14 28-Come Clean (Kilmarth Rmx)
--------------------------------------------------------------------------------
Количество треков: 2
Реальные значения DR: DR8
Частота: 44100 Гц
Каналов: 2
Разрядность: 24
Битрейт: 1625 кбит/с
Кодек: FLAC
================================================================================

Код:
-----------------------
DON'T MODIFY THIS FILE
-----------------------
PERFORMER: auCDtect Task Manager, ver. 1.6.0 RC1 build 1.6.0.1
Copyright (c) 2008-2010 y-soft. All rights reserved
[url=http://y-soft.org]http://y-soft.org[/url]
ANALYZER: auCDtect: CD records authenticity detector, version 0.8.2
Copyright (c) 2004 Oleg Berngardt. All rights reserved.
Copyright (c) 2004 Alexander Djourik. All rights reserved.
FILE: 27 - In My Arms (Tentacles Edit).flac
  Size: 40755639 Hash: 82DC65FCC0A62D0396B00B1CECBBC0FA Accuracy: -m0
  Conclusion: CDDA 100%
  Signature: 99D7CDD7F1F4265889A83C4009054478B00C4304
FILE: 26 - Lost In Translation.flac
  Size: 36635171 Hash: 8051C87576FF8462A00857923BAC1473 Accuracy: -m0
  Conclusion: CDDA 100%
  Signature: C07036C0614AAAABE8FC8036C07098101E8329A9
FILE: 23 - We Woke Up The Dragon (Daniel B. Prothese Rmx).flac
  Size: 34273521 Hash: 7B8B890CF78F7F98066109496AA5E114 Accuracy: -m0
  Conclusion: CDDA 99%
  Signature: 8B2853CF9CF106BC91DBF8EF08CFDEE4F296362C
FILE: 22 - Come Clean (Neikka RPM Rmx).flac
  Size: 26701394 Hash: E7D7F1AE86FF883B8EF84446FFF3F9E7 Accuracy: -m0
  Conclusion: CDDA 100%
  Signature: 67AF21D00E60B57C93B1DBB9845DC53C3C122F9A
FILE: 21 - Numb Hearts.flac
  Size: 32046890 Hash: 5BA27B6AFEBB170EEE5E21920BF3B73C Accuracy: -m0
  Conclusion: CDDA 100%
  Signature: 2254D81362625592F73D3D23AD84AF14050AD522
FILE: 20 - Nos Silences (Moonrise Edit).flac
  Size: 38293746 Hash: 1764C6A0765E28A7ED2AB7890E90D6AF Accuracy: -m0
  Conclusion: CDDA 100%
  Signature: 6A17F499C1CD460C4C6CFDCF4B45A87CCEBCEAF0
FILE: 19 - Tears (Aesthetische Clean Rmx).flac
  Size: 40169912 Hash: 3F8CE6B5BAF3168CE86D5FEB3F8A2BB5 Accuracy: -m0
  Conclusion: CDDA 100%
  Signature: B6B627DF8AFD5FC5F0C3A2317A4AA96D967AC1D3
FILE: 17 - We Woke Up The Dragon (Unlocked).flac
  Size: 32580743 Hash: 382F8C77756C9C86A98D94E9E8AD4F32 Accuracy: -m0
  Conclusion: CDDA 100%
  Signature: EFD5B604258059251EF13704477E4186FE9EBBCC
FILE: 16 - Sense & Nonsense.flac
  Size: 23715967 Hash: 86D3D08FD0AB44C0E3360EAF2FCA68C1 Accuracy: -m0
  Conclusion: CDDA 100%
  Signature: FD57FF60B12139A77BAD522C2B470806FDC3BA25
FILE: 15 - Life In The Valley Of Death.flac
  Size: 44613763 Hash: 50975AE715ABE00553F29650C8E2C724 Accuracy: -m0
  Conclusion: CDDA 100%
  Signature: A2556D6BDB80351A3DCB4300D6875CF71A697F9E
FILE: 14 - Ritual Control.flac
  Size: 39243429 Hash: A65C61986164BAA63E812C74989354F3 Accuracy: -m0
  Conclusion: CDDA 100%
  Signature: FB10BA4E5C89163EB2FE4329E9DFC1441445B4F9
FILE: 13 - Nos Silences.flac
  Size: 36391616 Hash: 9800EB35C02C128C4EB236BFB52611B8 Accuracy: -m0
  Conclusion: CDDA 100%
  Signature: A7E29DE6B885529164366917F8C60E0B29C23A58
FILE: 12 - The Arrival.flac
  Size: 44383317 Hash: 20E51953A1AA69D3527B1F9BB5F28E5A Accuracy: -m0
  Conclusion: CDDA 100%
  Signature: A8F845EC4EF2EBCE1C56A9B4F5D58F2FBE5205A3
FILE: 11 - Ablation A Vif.flac
  Size: 27014829 Hash: DD68CA1CE6C43B9C2035EB0DEC736385 Accuracy: -m0
  Conclusion: CDDA 100%
  Signature: D1B8B7219FE445CF0F1680BEC4452B6D4D880237
FILE: 10 - Etching Herself In Acid.flac
  Size: 34839442 Hash: 8705FF32F297B7AFF38E75B7C9736C9E Accuracy: -m0
  Conclusion: CDDA 100%
  Signature: DDB23DDA8AB5FD64CF45D0F2A6F6FA2A54180BBF
FILE: 09 - Shallow Then Halo.flac
  Size: 38330380 Hash: 265C9A5E1E36267A74D7F27C5A4165EB Accuracy: -m0
  Conclusion: CDDA 99%
  Signature: F5AEE87E96887B9BA015514613F43AF9A98E49C7
FILE: 08 - Loud.flac
  Size: 39072038 Hash: 3B074BEE53F2D6C7C25BD91604B1C055 Accuracy: -m0
  Conclusion: CDDA 100%
  Signature: 4A75E17A8151645E5EAEE79DA9EE31319FB73108
FILE: 07 - In My Arms.flac
  Size: 42753070 Hash: 827C2E35B1C76ABF3CEDB18E2700508E Accuracy: -m0
  Conclusion: CDDA 100%
  Signature: 1AEDD3C22DFDBA95B3428F4E8B00FC9B62BCFC25
FILE: 06 - Caresse.flac
  Size: 39670509 Hash: F3D9434A9D9125569E92E0D49C508D51 Accuracy: -m0
  Conclusion: CDDA 100%
  Signature: C87A78E39932D9E7B628A8DEFB4ACC3913C31CB5
FILE: 05 - Guilty Eyes.flac
  Size: 42730358 Hash: D7718809256E661EE8FE5EE0A52BB688 Accuracy: -m0
  Conclusion: CDDA 100%
  Signature: 1A69E6FB8B10B453A9DC30DA20593A41ADD01C1E
FILE: 04 - Hall Of Mirrors.flac
  Size: 41381958 Hash: 24250E83D3DC51FB9B1006DEA65097E0 Accuracy: -m0
  Conclusion: CDDA 100%
  Signature: 7686A15686B65837D347B02C21BF81FEAC923BD5
FILE: 03 - Tears.flac
  Size: 44191169 Hash: 1ACF73C32FD45524FA92A550DF4E48EC Accuracy: -m0
  Conclusion: CDDA 100%
  Signature: CC41255F831834A0996826520734C307A36E7F6C
FILE: 02 - Come Clean.flac
  Size: 40299955 Hash: DCC55085ECE9494C103449C53C3A51C7 Accuracy: -m0
  Conclusion: CDDA 100%
  Signature: E33452230AECC617CC1572B5BD0499E71B1DC6CC
FILE: 01 - We Woke Up The Dragon.flac
  Size: 31941409 Hash: 79194035A20B9E11EEB0576513A7B0AE Accuracy: -m0
  Conclusion: CDDA 100%
  Signature: A5281C65E7950E296C3D04AE152489F05F55602C


Правила, инструкции, FAQ!!!
Торрент  Добавлен [26 июн 2020, 20:22] Скачать торрент Магнет ссылка
Скачать торрент
[ Размер 12.84 КБ / Просмотров 8 ]

Статус
Проверен 
 
Размер  1.06 ГБ
Приватный: Нет (DHT включён)
.torrent скачан  0
 


     Отправить личное сообщение
   
Страница 1 из 1
Показать сообщения за:  Поле сортировки  
Начать новую тему Ответить на тему


Сейчас этот форум просматривают: нет зарегистрированных пользователей и гости: 0


Вы не можете начинать темы
Вы не можете отвечать на сообщения
Вы не можете редактировать свои сообщения
Вы не можете удалять свои сообщения
Вы не можете добавлять вложения

Перейти:  
cron