Начать новую тему Ответить на тему
Статистика раздачи
Размер: 298.87 МБ | Добавлен: 26 июн 2020, 20:15 | Скачали: 0
Сидеров: 0  [0 байт/сек]    Личеров: 0  [0 байт/сек]
Пред. тема | След. тема 

Автор
Сообщение

СообщениеДобавлено: 26 июн 2020, 20:15 

Ответить с цитатой 

Öhm - Öhm
Жанр: EBM, Dark Electro, Industrial
Год издания: 2013
Страна: Канада
Аудиокодек: FLAC (*.flac)
Тип рипа: image+.cue
Битрейт аудио: lossless
Продолжительность: 43:28
Источник (релизер): Собственный диск
Наличие сканов в содержимом раздачи: нет
Дополнительно:
http://www.stormingthebase.com/ohm-ohm-cd/
01-When Robots Fuck
02-Car Crash
03-Detroit [Vocals By Kaine Delay]
04-Divinity
05-4am
06-Aurora
07-Apparition
08-Destroyed In Seconds
09-Brute
10-My Kingdom
Код:
Exact Audio Copy V1.0 beta 3 from 29. August 2011
Отчёт EAC об извлечении, выполненном 14. ноября 2013, 20:16
Ohm / Ohm
Дисковод: TSSTcorpCDDVDW SH-S223B   Adapter: 3  ID: 4
Режим чтения                 : Достоверность
Использование точного потока : Да
Отключение кэша аудио        : Да
Использование указателей C2  : Нет
Коррекция смещения при чтении                     : 6
Способность читать области Lead-in и Lead-out     : Нет
Заполнение пропущенных сэмплов тишиной            : Да
Удаление блоков с тишиной в начале и конце        : Нет
При вычислениях CRC использовались нулевые сэмплы : Да
Интерфейс                                         : Встроенный Win32-интерфейс для Win NT/2000
Выходной формат          : Пользовательский кодировщик
Выбранный битрейт        : 128 kBit/s
Качество                 : Высокий
Добавление ID3-тега      : Нет
Утилита сжатия           : C:\Program Files (x86)\Exact Audio Copy\Flac\flac.exe
Дополнительные параметры : -V -8 -T "Date=%year%" -T "Genre=%genre%" %source%
TOC извлечённого CD
     Трек |   Старт  | Длительность | Начальный сектор | Конечный сектор
    ---------------------------------------------------------------------
       1  |  0:00.00 |    5:10.05   |           0      |      23254
       2  |  5:10.05 |    4:48.02   |       23255      |      44856
       3  |  9:58.07 |    4:39.60   |       44857      |      65841
       4  | 14:37.67 |    4:16.10   |       65842      |      85051
       5  | 18:54.02 |    5:06.64   |       85052      |     108065
       6  | 24:00.66 |    1:56.64   |      108066      |     116829
       7  | 25:57.55 |    4:45.03   |      116830      |     138207
       8  | 30:42.58 |    5:34.61   |      138208      |     163318
       9  | 36:17.44 |    3:42.05   |      163319      |     179973
      10  | 39:59.49 |    3:28.52   |      179974      |     195625
Характеристики диапазона извлечения и сообщения об ошибках
Выбранный диапазон
     Имя файла M:\Ohm - Ohm.wav
     Пиковый уровень 98.6 %
     Скорость извлечения 6.9 X
     Качество диапазона 100.0 %
     CRC теста 357AD416
     CRC копии 357AD416
     Копирование... OK
Ошибок не произошло
AccurateRip: сводка
Трек  1  отсутствует в базе данных
Трек  2  отсутствует в базе данных
Трек  3  отсутствует в базе данных
Трек  4  отсутствует в базе данных
Трек  5  отсутствует в базе данных
Трек  6  отсутствует в базе данных
Трек  7  отсутствует в базе данных
Трек  8  отсутствует в базе данных
Трек  9  отсутствует в базе данных
Трек 10  отсутствует в базе данных
Ни одного трека нет в базе AccurateRip
Конец отчёта
==== Контрольная сумма отчёта 7BF6FA86B556D585FF56BBA4FACF21E99480E4383A9F0867F26C8A4EE0F4210B ====
Код:
REM GENRE Electronic
REM DATE 2013
REM DISCID 7B0A300A
REM COMMENT "ExactAudioCopy v1.0b3"
PERFORMER "Ohm"
TITLE "Ohm"
FILE "Ohm - Ohm.flac" WAVE
  TRACK 01 AUDIO
    TITLE "01 When Robots Fuck"
    PERFORMER "Ohm"
    INDEX 01 00:00:00
  TRACK 02 AUDIO
    TITLE "02 Car Crash"
    PERFORMER "Ohm"
    INDEX 01 05:10:05
  TRACK 03 AUDIO
    TITLE "03 Detroit"
    PERFORMER "Ohm"
    INDEX 01 09:58:07
  TRACK 04 AUDIO
    TITLE "04 Divinity"
    PERFORMER "Ohm"
    INDEX 01 14:37:67
  TRACK 05 AUDIO
    TITLE "05 4Am"
    PERFORMER "Ohm"
    INDEX 01 18:54:02
  TRACK 06 AUDIO
    TITLE "06 Aurora"
    PERFORMER "Ohm"
    INDEX 01 24:00:66
  TRACK 07 AUDIO
    TITLE "07 Apparition"
    PERFORMER "Ohm"
    INDEX 01 25:57:55
  TRACK 08 AUDIO
    TITLE "08 Destroyed in Seconds"
    PERFORMER "Ohm"
    INDEX 01 30:42:58
  TRACK 09 AUDIO
    TITLE "09 Brute"
    PERFORMER "Ohm"
    INDEX 01 36:17:44
  TRACK 10 AUDIO
    TITLE "10 My Kingdom"
    PERFORMER "Ohm"
    INDEX 01 39:59:49
Правила, инструкции, FAQ!!!
Торрент  Добавлен [26 июн 2020, 20:15] Скачать торрент Магнет ссылка
Скачать торрент
[ Размер 12.22 КБ / Просмотров 11 ]

Статус
Проверен 
 
Размер  298.87 МБ
Приватный: Нет (DHT включён)
.torrent скачан  0
 


     Отправить личное сообщение
   
Страница 1 из 1
Показать сообщения за:  Поле сортировки  
Начать новую тему Ответить на тему


Сейчас этот форум просматривают: нет зарегистрированных пользователей и гости: 0


Вы не можете начинать темы
Вы не можете отвечать на сообщения
Вы не можете редактировать свои сообщения
Вы не можете удалять свои сообщения
Вы не можете добавлять вложения

Перейти:  
cron