Начать новую тему Ответить на тему
Статистика раздачи
Размер: 308.32 МБ | Добавлен: 26 июн 2020, 17:04 | Скачали: 0
Сидеров: 0  [0 байт/сек]    Личеров: 0  [0 байт/сек]
Пред. тема | След. тема 

Автор
Сообщение

СообщениеДобавлено: 26 июн 2020, 17:04 

Ответить с цитатой 

Individual Totem - Mind sculpture flesh
Жанр: EBM, Dark Electro
Год выпуска диска: 1997
Производитель диска: Германия
Аудио кодек: APE
Тип рипа: image+.cue
Битрейт аудио: lossless
Продолжительность: 00:47:15
Трэклист:
01.Backlash
02.Subsistance
03.Paradoxen
04.System Interrupted 0
05.Present Island
06.3 Sec. Reality
07.Refuge
08.Depressive Tendency
09.Flow
10.Misconducted
11.Vince
Код:
Exact Audio Copy V0.99 prebeta 5 from 4. May 2009
Отчёт EAC об извлечении, выполненном 23. июля 2009, 21:03
Individual Totem / Mind Sculptures Flesh
Дисковод: Optiarc DVD RW AD-7201S   Adapter: 1  ID: 1
Режим чтения                 : Достоверность
Использование точного потока : Да
Отключение кэша аудио        : Да
Использование указателей C2  : Нет
Коррекция смещения при чтении                     : 48
Способность читать области Lead-in и Lead-out     : Нет
Заполнение пропущенных сэмплов тишиной            : Да
Удаление блоков с тишиной в начале и конце        : Нет
При вычислениях CRC использовались нулевые сэмплы : Да
Интерфейс                                         : Установленный внешний ASPI-интерфейс
Выходной формат : Внутренние WAV-операции
Формат сэмплов  : 44.100 Гц; 16 бит; стерео
TOC извлечённого CD
     Трек |   Старт  | Длительность | Начальный сектор | Конечный сектор
    ---------------------------------------------------------------------
       1  |  0:00.00 |    0:52.35   |           0      |       3934
       2  |  0:52.35 |    5:17.27   |        3935      |      27736
       3  |  6:09.62 |    4:27.38   |       27737      |      47799
       4  | 10:37.25 |    4:20.12   |       47800      |      67311
       5  | 14:57.37 |    5:08.23   |       67312      |      90434
       6  | 20:05.60 |    3:34.07   |       90435      |     106491
       7  | 23:39.67 |    4:49.38   |      106492      |     128204
       8  | 28:29.30 |    5:00.07   |      128205      |     150711
       9  | 33:29.37 |    4:58.18   |      150712      |     173079
      10  | 38:27.55 |    2:33.55   |      173080      |     184609
      11  | 41:01.35 |    6:14.40   |      184610      |     212699
Характеристики диапазона извлечения и сообщения об ошибках
Выбранный диапазон
     Имя файла D:\Documents and Settings\Rodexx\Рабочий стол\Din Fiv - Escape To Reality\Individual Totem - Mind Sculptures Flesh.wav
     Пиковый уровень 98.4 %
     Качество диапазона 100.0 %
     CRC теста A4B977CC
     CRC копии A4B977CC
     Копирование... OK
Ошибок не произошло
Конец отчёта
Label: Off Beat
Catalog#: O-096
Format: CD, Album
Country: Germany
Released: 1997
Genre: Electronic
Style: Electro, Industrial
Правила, инструкции, FAQ!!!
Торрент  Добавлен [26 июн 2020, 17:04] Скачать торрент Магнет ссылка
Скачать торрент
[ Размер 12.83 КБ / Просмотров 3 ]

Статус
Проверен 
 
Размер  308.32 МБ
Приватный: Нет (DHT включён)
.torrent скачан  0
 


     Отправить личное сообщение
   
Страница 1 из 1
Показать сообщения за:  Поле сортировки  
Начать новую тему Ответить на тему


Сейчас этот форум просматривают: нет зарегистрированных пользователей и гости: 0


Вы не можете начинать темы
Вы не можете отвечать на сообщения
Вы не можете редактировать свои сообщения
Вы не можете удалять свои сообщения
Вы не можете добавлять вложения

Перейти:  
cron