Начать новую тему Ответить на тему
Статистика раздачи
Размер: 320.77 МБ | Добавлен: 26 июн 2020, 17:03 | Скачали: 0
Сидеров: 0  [0 байт/сек]    Личеров: 0  [0 байт/сек]
Пред. тема | След. тема 

Автор
Сообщение

СообщениеДобавлено: 26 июн 2020, 17:03 

Ответить с цитатой 

Fiction 8 / Project Phoenix
Жанр: EBM, Dark Electro
Страна-производитель диска: Россия
Год издания диска: 2009
Издатель (лейбл): Shadowplay Ltd.
Номер по каталогу: SPR 094
Страна: USA
Аудиокодек: FLAC (*.flac)
Тип рипа: image+.cue
Битрейт аудио: lossless
Продолжительность: 44:49
Источник (релизер): собственный рип
Наличие сканов в содержимом раздачи: да
Треклист:
01. After All (3:25)
02. We Are Machines (3:18)
03. Sacrifice (4:32)
04. Take My Hand (4:56)
05. A Face In The Crowd (4:02)
06. Sometimes (5:06)
07. Never Run Away (5:19)
08. Legacy (6:11)
09. In Orbit (3:09)
10. Hegemony (4:51)
Код:
Exact Audio Copy V0.99 prebeta 4 from 23. January 2008
Отчёт EAC об извлечении, выполненном 24. ноября 2011, 18:26
Fiction 8 / Project Phoenix
Дисковод: _NEC    DVD_RW ND-3520A   Adapter: 0  ID: 0
Режим чтения                 : Достоверность
Использование точного потока : Да
Отключение кэша аудио        : Да
Использование указателей C2  : Нет
Коррекция смещения при чтении                     : 48
Способность читать области Lead-in и Lead-out     : Нет
Заполнение пропущенных сэмплов тишиной            : Да
Удаление блоков с тишиной в начале и конце        : Нет
При вычислениях CRC использовались нулевые сэмплы : Нет
Интерфейс                                         : Встроенный Win32-интерфейс для Win NT/2000
Выходной формат : Внутренние WAV-операции
Формат сэмплов  : 44.100 Гц; 16 бит; стерео
TOC извлечённого CD
     Трек |   Старт  | Длительность | Начальный сектор | Конечный сектор
    ---------------------------------------------------------------------
       1  |  0:00.00 |    3:24.69   |           0      |      15368
       2  |  3:24.69 |    3:17.74   |       15369      |      30217
       3  |  6:42.68 |    4:32.37   |       30218      |      50654
       4  | 11:15.30 |    4:56.36   |       50655      |      72890
       5  | 16:11.66 |    4:01.55   |       72891      |      91020
       6  | 20:13.46 |    5:05.44   |       91021      |     113939
       7  | 25:19.15 |    5:19.09   |      113940      |     137873
       8  | 30:38.24 |    6:10.54   |      137874      |     165677
       9  | 36:49.03 |    3:08.58   |      165678      |     179835
      10  | 39:57.61 |    4:51.26   |      179836      |     201686
Характеристики диапазона извлечения и сообщения об ошибках
Выбранный диапазон
     Имя файла F:\Fiction 8 - Project Phoenix.wav
     Пиковый уровень 98.9 %
     Качество диапазона 100.0 %
     CRC копии 00E6B6D7
     Копирование... OK
Ошибок не произошло
Конец отчёта
Код:
REM GENRE EBM
REM DATE 2009
REM DISCID 750A810A
REM COMMENT "ExactAudioCopy v0.99pb4"
PERFORMER "Fiction 8"
TITLE "Project Phoenix"
FILE "Fiction 8 - Project Phoenix.wav" WAVE
  TRACK 01 AUDIO
    TITLE "After All"
    PERFORMER "Fiction 8"
    FLAGS DCP
    INDEX 01 00:00:00
  TRACK 02 AUDIO
    TITLE "We Are Machines"
    PERFORMER "Fiction 8"
    FLAGS DCP
    INDEX 00 03:22:69
    INDEX 01 03:24:69
  TRACK 03 AUDIO
    TITLE "Sacrifice"
    PERFORMER "Fiction 8"
    FLAGS DCP
    INDEX 00 06:40:68
    INDEX 01 06:42:68
  TRACK 04 AUDIO
    TITLE "Take My Hand"
    PERFORMER "Fiction 8"
    FLAGS DCP
    INDEX 00 11:13:30
    INDEX 01 11:15:30
  TRACK 05 AUDIO
    TITLE "A Face In The Crowd"
    PERFORMER "Fiction 8"
    FLAGS DCP
    INDEX 00 16:09:66
    INDEX 01 16:11:66
  TRACK 06 AUDIO
    TITLE "Sometimes"
    PERFORMER "Fiction 8"
    FLAGS DCP
    INDEX 00 20:11:46
    INDEX 01 20:13:46
  TRACK 07 AUDIO
    TITLE "Never Run Away"
    PERFORMER "Fiction 8"
    FLAGS DCP
    INDEX 00 25:17:15
    INDEX 01 25:19:15
  TRACK 08 AUDIO
    TITLE "Legacy"
    PERFORMER "Fiction 8"
    FLAGS DCP
    INDEX 00 30:36:24
    INDEX 01 30:38:24
  TRACK 09 AUDIO
    TITLE "In Orbit"
    PERFORMER "Fiction 8"
    FLAGS DCP
    INDEX 00 36:47:03
    INDEX 01 36:49:03
  TRACK 10 AUDIO
    TITLE "Hegemony"
    PERFORMER "Fiction 8"
    FLAGS DCP
    INDEX 00 39:55:61
    INDEX 01 39:57:61
Правила, инструкции, FAQ!!!
Торрент  Добавлен [26 июн 2020, 17:03] Скачать торрент Магнет ссылка
Скачать торрент
[ Размер 13.39 КБ / Просмотров 5 ]

Статус
Проверен 
 
Размер  320.77 МБ
Приватный: Нет (DHT включён)
.torrent скачан  0
 


     Отправить личное сообщение
   
Страница 1 из 1
Показать сообщения за:  Поле сортировки  
Начать новую тему Ответить на тему


Сейчас этот форум просматривают: нет зарегистрированных пользователей и гости: 0


Вы не можете начинать темы
Вы не можете отвечать на сообщения
Вы не можете редактировать свои сообщения
Вы не можете удалять свои сообщения
Вы не можете добавлять вложения

Перейти:  
cron