Начать новую тему Ответить на тему
Статистика раздачи
Размер: 413.89 МБ | Добавлен: 26 июн 2020, 18:00 | Скачали: 0
Сидеров: 0  [0 байт/сек]    Личеров: 0  [0 байт/сек]
Пред. тема | След. тема 

Автор
Сообщение

СообщениеДобавлено: 26 июн 2020, 18:00 

Ответить с цитатой 

Dunkelwerk - Troops Ltd CD2
Жанр: EBM, Dark Electro
Год выпуска диска: 2005
Производитель диска: Belgium
Аудио кодек: FLAC
Тип рипа: tracks+.cue
Битрейт аудио: lossless
Продолжительность: 58:11
Трэклист:
1. Hope's Haven Part 2 (220m Weiter Fallend) (5:20)
2. Sternensoldat (Payen Von Montdidier Remix By Heimataerde) (4:26)Remix - Heimataerde
3. Bastard (Cold Steel Mix By Winterstahl) (4:33)Remix - Winterstahl
4. 2hell (Shrapnel: 2012 Remix By Stereomotion) (5:28)Remix - Stereomotion
5. Sternensoldat (Du-Bist-Meine-Sonne-Remix By Master Judge) (4:49)Remix - Master Judge
6. Dresden (Remix By Patenbrigade: Wolff) (3:49)Remix - Patenbrigade: Wolff
7. 2hell (Remix By Stark) (4:14)Remix - Stark
8. Panzerschreck (4:58)
9. Hymn (Short Cut Instrumental) (3:54)
10. Die Sechste Armee (Blue Tape Version) (4:54)
11. Stormlight (6:01)
12. 2hell (Ladykiller Mix Extended) (5:45)
Доп. информация:
Лэйбл: Alfa Matrix
Catalog#: AM-2056DCDltd
В раздаче второй диск из Dunkelwerk - Troops (CD, Album + CD, Ltd + Box, Ltd)
CD1: Album
CD2: Compilation, Limited Edition
В раздаче только CD 2.
Первый диск можно скачать здесь Dunkelwerk - Troops - 2005, APE (image+.cue), lossless
Коробочное издание содержит обычный double-jewelcase c 8-и страничным буклетом, 3 открытки, наклейку.
Сканы оформления прилагаются
Код:
Exact Audio Copy V0.99 prebeta 4 from 23. January 2008
EAC extraction logfile from 12. September 2009, 21:40
Dunkelwerk / Troops (Limited Edition Disk 2)
Used drive  : Optiarc BD ROM BC-5500A   Adapter: 0  ID: 0
Read mode               : Secure
Utilize accurate stream : Yes
Defeat audio cache      : Yes
Make use of C2 pointers : No
Read offset correction                      : 48
Overread into Lead-In and Lead-Out          : No
Fill up missing offset samples with silence : Yes
Delete leading and trailing silent blocks   : No
Null samples used in CRC calculations       : Yes
Used interface                              : Installed external ASPI interface
Gap handling                                : Appended to previous track
Used output format              : User Defined Encoder
Selected bitrate                : 320 kBit/s
Quality                         : High
Add ID3 tag                     : No
Command line compressor         : C:\Program Files\Exact Audio Copy\FLAC\FLAC.EXE
Additional command line options : -8 -V -T "ARTIST=%a" -T "TITLE=%t" -T "ALBUM=%g" -T "DATE=%y" -T "TRACKNUMBER=%n" -T "GENRE=%m" -T "COMMENT=EAC FLAC -8" %s
TOC of the extracted CD
     Track |   Start  |  Length  | Start sector | End sector
    ---------------------------------------------------------
        1  |  0:00.00 |  5:20.43 |         0    |    24042
        2  |  5:20.43 |  4:26.11 |     24043    |    44003
        3  |  9:46.54 |  4:33.73 |     44004    |    64551
        4  | 14:20.52 |  5:28.44 |     64552    |    89195
        5  | 19:49.21 |  4:49.66 |     89196    |   110936
        6  | 24:39.12 |  3:49.41 |    110937    |   128152
        7  | 28:28.53 |  4:14.21 |    128153    |   147223
        8  | 32:42.74 |  4:58.63 |    147224    |   169636
        9  | 37:41.62 |  3:54.07 |    169637    |   187193
       10  | 41:35.69 |  4:54.74 |    187194    |   209317
       11  | 46:30.68 |  6:01.68 |    209318    |   236460
       12  | 52:32.61 |  5:45.34 |    236461    |   262369
Track  1
     Filename E:\Dunkelwerk - Troops (Limited Edition Disk 2) (2005) [FLAC]\01 - Hope's Haven Part 2 (220m Weiter Fallend).wav
     Pre-gap length  0:00:02.00
     Peak level 100.0 %
     Track quality 100.0 %
     Test CRC FD121D02
     Copy CRC FD121D02
     Track not present in AccurateRip database
     Copy OK
Track  2
     Filename E:\Dunkelwerk - Troops (Limited Edition Disk 2) (2005) [FLAC]\02 - Sternensoldat (Payen Von Montdidier Remix By Heimataerde).wav
     Peak level 100.0 %
     Track quality 100.0 %
     Test CRC 690A326B
     Copy CRC 690A326B
     Track not present in AccurateRip database
     Copy OK
Track  3
     Filename E:\Dunkelwerk - Troops (Limited Edition Disk 2) (2005) [FLAC]\03 - Bastard (Cold Steel Mix By Winterstahl).wav
     Peak level 100.0 %
     Track quality 100.0 %
     Test CRC B68F6839
     Copy CRC B68F6839
     Track not present in AccurateRip database
     Copy OK
Track  4
     Filename E:\Dunkelwerk - Troops (Limited Edition Disk 2) (2005) [FLAC]\04 - 2hell (Shrapnel- 2012 Remix By Stereomotion).wav
     Peak level 100.0 %
     Track quality 100.0 %
     Test CRC D67009C5
     Copy CRC D67009C5
     Track not present in AccurateRip database
     Copy OK
Track  5
     Filename E:\Dunkelwerk - Troops (Limited Edition Disk 2) (2005) [FLAC]\05 - Sternensoldat (Du-Bist-Meine-Sonne-Remix By Master Judge).wav
     Peak level 100.0 %
     Track quality 99.9 %
     Test CRC 37AAF801
     Copy CRC 37AAF801
     Track not present in AccurateRip database
     Copy OK
Track  6
     Filename E:\Dunkelwerk - Troops (Limited Edition Disk 2) (2005) [FLAC]\06 - Dresden (Remix By Patenbrigade- Wolff).wav
     Peak level 100.0 %
     Track quality 100.0 %
     Test CRC C3ADDC73
     Copy CRC C3ADDC73
     Track not present in AccurateRip database
     Copy OK
Track  7
     Filename E:\Dunkelwerk - Troops (Limited Edition Disk 2) (2005) [FLAC]\07 - 2hell (Remix By Stark).wav
     Peak level 100.0 %
     Track quality 100.0 %
     Test CRC 8BE6F047
     Copy CRC 8BE6F047
     Track not present in AccurateRip database
     Copy OK
Track  8
     Filename E:\Dunkelwerk - Troops (Limited Edition Disk 2) (2005) [FLAC]\08 - Panzerschreck.wav
     Peak level 100.0 %
     Track quality 99.9 %
     Test CRC CAC7C218
     Copy CRC CAC7C218
     Track not present in AccurateRip database
     Copy OK
Track  9
     Filename E:\Dunkelwerk - Troops (Limited Edition Disk 2) (2005) [FLAC]\09 - Hymn (Short Cut Instrumental).wav
     Peak level 100.0 %
     Track quality 99.9 %
     Test CRC 0D04BA0D
     Copy CRC 0D04BA0D
     Track not present in AccurateRip database
     Copy OK
Track 10
     Filename E:\Dunkelwerk - Troops (Limited Edition Disk 2) (2005) [FLAC]\10 - Die Sechste Armee (Blue Tape Version).wav
     Peak level 100.0 %
     Track quality 100.0 %
     Test CRC 6C3659B9
     Copy CRC 6C3659B9
     Track not present in AccurateRip database
     Copy OK
Track 11
     Filename E:\Dunkelwerk - Troops (Limited Edition Disk 2) (2005) [FLAC]\11 - Stormlight.wav
     Peak level 100.0 %
     Track quality 100.0 %
     Test CRC 3FEE3D46
     Copy CRC 3FEE3D46
     Track not present in AccurateRip database
     Copy OK
Track 12
     Filename E:\Dunkelwerk - Troops (Limited Edition Disk 2) (2005) [FLAC]\12 - 2hell (Ladykiller Mix Extended).wav
     Peak level 100.0 %
     Track quality 100.0 %
     Test CRC 88A11C17
     Copy CRC 88A11C17
     Track not present in AccurateRip database
     Copy OK
None of the tracks are present in the AccurateRip database
No errors occurred
End of status report
Правила, инструкции, FAQ!!!
Торрент  Добавлен [26 июн 2020, 18:00] Скачать торрент Магнет ссылка
Скачать торрент
[ Размер 18.43 КБ / Просмотров 10 ]

Статус
Проверен 
 
Размер  413.89 МБ
Приватный: Нет (DHT включён)
.torrent скачан  0
 


     Отправить личное сообщение
   
Страница 1 из 1
Показать сообщения за:  Поле сортировки  
Начать новую тему Ответить на тему


Сейчас этот форум просматривают: нет зарегистрированных пользователей и гости: 0


Вы не можете начинать темы
Вы не можете отвечать на сообщения
Вы не можете редактировать свои сообщения
Вы не можете удалять свои сообщения
Вы не можете добавлять вложения

Перейти:  
cron