Начать новую тему Ответить на тему
Статистика раздачи
Размер: 410.19 МБ | Добавлен: 26 июн 2020, 17:27 | Скачали: 0
Сидеров: 0  [0 байт/сек]    Личеров: 0  [0 байт/сек]
Пред. тема | След. тема 

Автор
Сообщение

СообщениеДобавлено: 26 июн 2020, 17:27 

Ответить с цитатой 

Noisuf-X / Dead End District
Жанр: EBM, Dark Electro, Aggrotech
Страна-производитель диска: Germany
Год издания диска: 2011
Издатель (лейбл): Pronoize
Номер по каталогу: 4250137249087
Страна: Germany
Аудиокодек: FLAC (*.flac)
Тип рипа: tracks+.cue
Битрейт аудио: lossless
Продолжительность: 54:51
Источник (релизер): what.cd
Наличие сканов в содержимом раздачи: нет
Треклист:
01 Stay Still 04:21
02 Clubhit 04:11
03 Es wird brennen... 04:17
04 Done In 15 Minutes 04:13
05 Strange Signal 04:34
06 First Time Optimistic 03:33
07 Shout Loud 03:48
08 Fulfill Its Promise 04:23
09 Wir fühlen den Krach 03:51
10 Future Ska [feat. Population] 04:20
11 What 04:37
12 HiFi 04:03
13 MurderHouse 04:14
Код:
X Lossless Decoder version 20110821 (136.1)
XLD extraction logfile from 2011-09-17 09:14:52 +0000
Noisuf-X / Dead End District
Used drive : YAMAHA CRW-F1E (revision 1.0g)
Ripper mode             : XLD Secure Ripper
Disable audio cache     : OK for the drive with a cache less than 1375KiB
Make use of C2 pointers : NO
Read offset correction  : 733
Max retry count         : 100
Gap status              : Analyzed, Appended
TOC of the extracted CD
     Track |   Start  |  Length  | Start sector | End sector
    ---------------------------------------------------------
        1  | 00:00:00 | 04:24:22 |         0    |    19821
        2  | 04:24:22 | 04:13:52 |     19822    |    38848
        3  | 08:37:74 | 04:19:35 |     38849    |    58308
        4  | 12:57:34 | 04:15:13 |     58309    |    77446
        5  | 17:12:47 | 04:36:20 |     77447    |    98166
        6  | 21:48:67 | 03:35:74 |     98167    |   114365
        7  | 25:24:66 | 03:50:30 |    114366    |   131645
        8  | 29:15:21 | 04:25:47 |    131646    |   151567
        9  | 33:40:68 | 03:53:50 |    151568    |   169092
       10  | 37:34:43 | 04:22:24 |    169093    |   188766
       11  | 41:56:67 | 04:39:64 |    188767    |   209755
       12  | 46:36:56 | 04:05:55 |    209756    |   228185
       13  | 50:42:36 | 04:15:39 |    228186    |   247349
AccurateRip Summary
    Disc not found in AccurateRip DB.
All Tracks
    Album gain             : -9.56 dB
    Peak                   : 1.000000
    Statistics
        Read error                           : 0
        Jitter error (maybe fixed)           : 0
        Retry sector count                   : 0
        Damaged sector count                 : 0
Track 01
    Filename : /Volumes/HD 2/Noisuf-X - 2011 - Dead End District/01 - Noisuf-X - 2011 - Stay Still.flac
    Pre-gap length : 00:02:00
    Track gain             : -8.67 dB
    Peak                   : 1.000000
    CRC32 hash (test run)  : 6C248680
    CRC32 hash             : 6C248680
    CRC32 hash (skip zero) : E04BB606
    AccurateRip signature  : 749384D7
        ->Track not present in AccurateRip database.
    Statistics
        Read error                           : 0
        Jitter error (maybe fixed)           : 0
        Retry sector count                   : 0
        Damaged sector count                 : 0
Track 02
    Filename : /Volumes/HD 2/Noisuf-X - 2011 - Dead End District/02 - Noisuf-X - 2011 - Clubhit.flac
    Track gain             : -9.64 dB
    Peak                   : 0.980469
    CRC32 hash (test run)  : D83166CC
    CRC32 hash             : D83166CC
    CRC32 hash (skip zero) : AF73CEB8
    AccurateRip signature  : 1FAE07A7
        ->Track not present in AccurateRip database.
    Statistics
        Read error                           : 0
        Jitter error (maybe fixed)           : 0
        Retry sector count                   : 0
        Damaged sector count                 : 0
Track 03
    Filename : /Volumes/HD 2/Noisuf-X - 2011 - Dead End District/03 - Noisuf-X - 2011 - Es Wird Brennen....flac
    Track gain             : -9.79 dB
    Peak                   : 0.980469
    CRC32 hash (test run)  : AC1A29B1
    CRC32 hash             : AC1A29B1
    CRC32 hash (skip zero) : 5321A252
    AccurateRip signature  : E9932189
        ->Track not present in AccurateRip database.
    Statistics
        Read error                           : 0
        Jitter error (maybe fixed)           : 0
        Retry sector count                   : 0
        Damaged sector count                 : 0
Track 04
    Filename : /Volumes/HD 2/Noisuf-X - 2011 - Dead End District/04 - Noisuf-X - 2011 - Done In 15 Minutes.flac
    Track gain             : -9.23 dB
    Peak                   : 0.980469
    CRC32 hash (test run)  : 3536B383
    CRC32 hash             : 3536B383
    CRC32 hash (skip zero) : 7162BE5B
    AccurateRip signature  : C619EC41
        ->Track not present in AccurateRip database.
    Statistics
        Read error                           : 0
        Jitter error (maybe fixed)           : 0
        Retry sector count                   : 0
        Damaged sector count                 : 0
Track 05
    Filename : /Volumes/HD 2/Noisuf-X - 2011 - Dead End District/05 - Noisuf-X - 2011 - Strange Signal.flac
    Track gain             : -9.21 dB
    Peak                   : 0.980469
    CRC32 hash (test run)  : DFF2D44B
    CRC32 hash             : DFF2D44B
    CRC32 hash (skip zero) : 25350F9F
    AccurateRip signature  : DF14F4F0
        ->Track not present in AccurateRip database.
    Statistics
        Read error                           : 0
        Jitter error (maybe fixed)           : 0
        Retry sector count                   : 0
        Damaged sector count                 : 0
Track 06
    Filename : /Volumes/HD 2/Noisuf-X - 2011 - Dead End District/06 - Noisuf-X - 2011 - First Time Optimistic.flac
    Track gain             : -10.15 dB
    Peak                   : 0.980469
    CRC32 hash (test run)  : 2603FADE
    CRC32 hash             : 2603FADE
    CRC32 hash (skip zero) : 62AC31F2
    AccurateRip signature  : BCAF3013
        ->Track not present in AccurateRip database.
    Statistics
        Read error                           : 0
        Jitter error (maybe fixed)           : 0
        Retry sector count                   : 0
        Damaged sector count                 : 0
Track 07
    Filename : /Volumes/HD 2/Noisuf-X - 2011 - Dead End District/07 - Noisuf-X - 2011 - Shout Loud.flac
    Track gain             : -10.78 dB
    Peak                   : 0.980469
    CRC32 hash (test run)  : 0A17B61A
    CRC32 hash             : 0A17B61A
    CRC32 hash (skip zero) : 05309FCF
    AccurateRip signature  : 9F0FED2B
        ->Track not present in AccurateRip database.
    Statistics
        Read error                           : 0
        Jitter error (maybe fixed)           : 0
        Retry sector count                   : 0
        Damaged sector count                 : 0
Track 08
    Filename : /Volumes/HD 2/Noisuf-X - 2011 - Dead End District/08 - Noisuf-X - 2011 - Fulfill Its Promise.flac
    Track gain             : -9.06 dB
    Peak                   : 0.980469
    CRC32 hash (test run)  : 30D4DEF7
    CRC32 hash             : 30D4DEF7
    CRC32 hash (skip zero) : 9AED7B82
    AccurateRip signature  : 98A417BF
        ->Track not present in AccurateRip database.
    Statistics
        Read error                           : 0
        Jitter error (maybe fixed)           : 0
        Retry sector count                   : 0
        Damaged sector count                 : 0
Track 09
    Filename : /Volumes/HD 2/Noisuf-X - 2011 - Dead End District/09 - Noisuf-X - 2011 - Wir Fühlen Den Krach.flac
    Track gain             : -8.84 dB
    Peak                   : 0.980469
    CRC32 hash (test run)  : 4D739AEC
    CRC32 hash             : 4D739AEC
    CRC32 hash (skip zero) : 2BE3D895
    AccurateRip signature  : B0F2F37E
        ->Track not present in AccurateRip database.
    Statistics
        Read error                           : 0
        Jitter error (maybe fixed)           : 0
        Retry sector count                   : 0
        Damaged sector count                 : 0
Track 10
    Filename : /Volumes/HD 2/Noisuf-X - 2011 - Dead End District/10 - Noisuf-X - 2011 - Future Ska (Featuring Population).flac
    Track gain             : -9.78 dB
    Peak                   : 0.980469
    CRC32 hash (test run)  : 0B318E78
    CRC32 hash             : 0B318E78
    CRC32 hash (skip zero) : 428E26FE
    AccurateRip signature  : 58FD5019
        ->Track not present in AccurateRip database.
    Statistics
        Read error                           : 0
        Jitter error (maybe fixed)           : 0
        Retry sector count                   : 0
        Damaged sector count                 : 0
Track 11
    Filename : /Volumes/HD 2/Noisuf-X - 2011 - Dead End District/11 - Noisuf-X - 2011 - What.flac
    Track gain             : -9.63 dB
    Peak                   : 0.980469
    CRC32 hash (test run)  : 54F7B731
    CRC32 hash             : 54F7B731
    CRC32 hash (skip zero) : 445C2054
    AccurateRip signature  : EE84A7FB
        ->Track not present in AccurateRip database.
    Statistics
        Read error                           : 0
        Jitter error (maybe fixed)           : 0
        Retry sector count                   : 0
        Damaged sector count                 : 0
Track 12
    Filename : /Volumes/HD 2/Noisuf-X - 2011 - Dead End District/12 - Noisuf-X - 2011 - HiFi.flac
    Track gain             : -8.94 dB
    Peak                   : 0.980469
    CRC32 hash (test run)  : AC89470D
    CRC32 hash             : AC89470D
    CRC32 hash (skip zero) : BB354CAD
    AccurateRip signature  : F0A6ABFD
        ->Track not present in AccurateRip database.
    Statistics
        Read error                           : 0
        Jitter error (maybe fixed)           : 0
        Retry sector count                   : 0
        Damaged sector count                 : 0
Track 13
    Filename : /Volumes/HD 2/Noisuf-X - 2011 - Dead End District/13 - Noisuf-X - 2011 - MurderHouse.flac
    Track gain             : -9.72 dB
    Peak                   : 0.980469
    CRC32 hash (test run)  : E62613ED
    CRC32 hash             : E62613ED
    CRC32 hash (skip zero) : A02DCBC7
    AccurateRip signature  : F26E2B0F
        ->Track not present in AccurateRip database.
    Statistics
        Read error                           : 0
        Jitter error (maybe fixed)           : 0
        Retry sector count                   : 0
        Damaged sector count                 : 0
No errors occurred
End of status report
Код:
TITLE "Dead End District"
PERFORMER "Noisuf-X"
REM GENRE "Alternative"
REM DATE "2011"
REM DISCNUMBER 1
REM TOTALDISCS 1
REM DISCID AF0CE20D
REM REPLAYGAIN_ALBUM_GAIN -9.56 dB
REM REPLAYGAIN_ALBUM_PEAK 1.000000
FILE "01 - Noisuf-X - 2011 - Stay Still.flac" WAVE
  TRACK 01 AUDIO
    TITLE "Stay Still"
    PERFORMER "Noisuf-X"
    FLAGS DCP
    REM REPLAYGAIN_TRACK_GAIN -8.67 dB
    REM REPLAYGAIN_TRACK_PEAK 1.000000
    INDEX 01 00:00:00
FILE "02 - Noisuf-X - 2011 - Clubhit.flac" WAVE
  TRACK 02 AUDIO
    TITLE "Clubhit"
    PERFORMER "Noisuf-X"
    FLAGS DCP
    REM REPLAYGAIN_TRACK_GAIN -9.64 dB
    REM REPLAYGAIN_TRACK_PEAK 0.980469
    INDEX 01 00:00:00
FILE "03 - Noisuf-X - 2011 - Es Wird Brennen....flac" WAVE
  TRACK 03 AUDIO
    TITLE "Es Wird Brennen..."
    PERFORMER "Noisuf-X"
    FLAGS DCP
    REM REPLAYGAIN_TRACK_GAIN -9.79 dB
    REM REPLAYGAIN_TRACK_PEAK 0.980469
    INDEX 01 00:00:00
FILE "04 - Noisuf-X - 2011 - Done In 15 Minutes.flac" WAVE
  TRACK 04 AUDIO
    TITLE "Done In 15 Minutes"
    PERFORMER "Noisuf-X"
    FLAGS DCP
    REM REPLAYGAIN_TRACK_GAIN -9.23 dB
    REM REPLAYGAIN_TRACK_PEAK 0.980469
    INDEX 01 00:00:00
FILE "05 - Noisuf-X - 2011 - Strange Signal.flac" WAVE
  TRACK 05 AUDIO
    TITLE "Strange Signal"
    PERFORMER "Noisuf-X"
    FLAGS DCP
    REM REPLAYGAIN_TRACK_GAIN -9.21 dB
    REM REPLAYGAIN_TRACK_PEAK 0.980469
    INDEX 01 00:00:00
FILE "06 - Noisuf-X - 2011 - First Time Optimistic.flac" WAVE
  TRACK 06 AUDIO
    TITLE "First Time Optimistic"
    PERFORMER "Noisuf-X"
    FLAGS DCP
    REM REPLAYGAIN_TRACK_GAIN -10.15 dB
    REM REPLAYGAIN_TRACK_PEAK 0.980469
    INDEX 01 00:00:00
FILE "07 - Noisuf-X - 2011 - Shout Loud.flac" WAVE
  TRACK 07 AUDIO
    TITLE "Shout Loud"
    PERFORMER "Noisuf-X"
    FLAGS DCP
    REM REPLAYGAIN_TRACK_GAIN -10.78 dB
    REM REPLAYGAIN_TRACK_PEAK 0.980469
    INDEX 01 00:00:00
FILE "08 - Noisuf-X - 2011 - Fulfill Its Promise.flac" WAVE
  TRACK 08 AUDIO
    TITLE "Fulfill Its Promise"
    PERFORMER "Noisuf-X"
    FLAGS DCP
    REM REPLAYGAIN_TRACK_GAIN -9.06 dB
    REM REPLAYGAIN_TRACK_PEAK 0.980469
    INDEX 01 00:00:00
FILE "09 - Noisuf-X - 2011 - Wir Fühlen Den Krach.flac" WAVE
  TRACK 09 AUDIO
    TITLE "Wir Fühlen Den Krach"
    PERFORMER "Noisuf-X"
    FLAGS DCP
    REM REPLAYGAIN_TRACK_GAIN -8.84 dB
    REM REPLAYGAIN_TRACK_PEAK 0.980469
    INDEX 01 00:00:00
FILE "10 - Noisuf-X - 2011 - Future Ska (Featuring Population).flac" WAVE
  TRACK 10 AUDIO
    TITLE "Future Ska (Featuring Population)"
    PERFORMER "Noisuf-X"
    FLAGS DCP
    REM REPLAYGAIN_TRACK_GAIN -9.78 dB
    REM REPLAYGAIN_TRACK_PEAK 0.980469
    INDEX 01 00:00:00
FILE "11 - Noisuf-X - 2011 - What.flac" WAVE
  TRACK 11 AUDIO
    TITLE "What"
    PERFORMER "Noisuf-X"
    FLAGS DCP
    REM REPLAYGAIN_TRACK_GAIN -9.63 dB
    REM REPLAYGAIN_TRACK_PEAK 0.980469
    INDEX 01 00:00:00
FILE "12 - Noisuf-X - 2011 - HiFi.flac" WAVE
  TRACK 12 AUDIO
    TITLE "HiFi"
    PERFORMER "Noisuf-X"
    FLAGS DCP
    REM REPLAYGAIN_TRACK_GAIN -8.94 dB
    REM REPLAYGAIN_TRACK_PEAK 0.980469
    INDEX 01 00:00:00
FILE "13 - Noisuf-X - 2011 - MurderHouse.flac" WAVE
  TRACK 13 AUDIO
    TITLE "MurderHouse"
    PERFORMER "Noisuf-X"
    FLAGS DCP
    REM REPLAYGAIN_TRACK_GAIN -9.72 dB
    REM REPLAYGAIN_TRACK_PEAK 0.980469
    INDEX 01 00:00:00
Код:
AUDIOCHECKER v1.2 - by Dester - opdester@freemail.hu
~~~~~~~~~~~~~~~~~
01 -===- H:\Music\Noisuf-X - 2011 - Dead End District\01 - Noisuf-X - 2011 - Stay Still.flac
  Extracted successfully
  Conclusion: This track looks like CDDA with probability 100%
02 -===- H:\Music\Noisuf-X - 2011 - Dead End District\02 - Noisuf-X - 2011 - Clubhit.flac
  Extracted successfully
  Conclusion: This track looks like CDDA with probability 99%
03 -===- H:\Music\Noisuf-X - 2011 - Dead End District\03 - Noisuf-X - 2011 - Es Wird Brennen....flac
  Extracted successfully
  Conclusion: This track looks like CDDA with probability 100%
04 -===- H:\Music\Noisuf-X - 2011 - Dead End District\04 - Noisuf-X - 2011 - Done In 15 Minutes.flac
  Extracted successfully
  Conclusion: This track looks like CDDA with probability 100%
05 -===- H:\Music\Noisuf-X - 2011 - Dead End District\05 - Noisuf-X - 2011 - Strange Signal.flac
  Extracted successfully
  Conclusion: This track looks like CDDA with probability 100%
06 -===- H:\Music\Noisuf-X - 2011 - Dead End District\06 - Noisuf-X - 2011 - First Time Optimistic.flac
  Extracted successfully
  Conclusion: This track looks like CDDA with probability 100%
07 -===- H:\Music\Noisuf-X - 2011 - Dead End District\07 - Noisuf-X - 2011 - Shout Loud.flac
  Extracted successfully
  Conclusion: This track looks like CDDA with probability 100%
08 -===- H:\Music\Noisuf-X - 2011 - Dead End District\08 - Noisuf-X - 2011 - Fulfill Its Promise.flac
  Extracted successfully
  Conclusion: This track looks like CDDA with probability 100%
09 -===- H:\Music\Noisuf-X - 2011 - Dead End District\09 - Noisuf-X - 2011 - Wir Fuhlen Den Krach.flac
  Extracted successfully
  Conclusion: This track looks like CDDA with probability 100%
10 -===- H:\Music\Noisuf-X - 2011 - Dead End District\10 - Noisuf-X - 2011 - Future Ska (Featuring Population).flac
  Extracted successfully
  Conclusion: This track looks like CDDA with probability 100%
11 -===- H:\Music\Noisuf-X - 2011 - Dead End District\11 - Noisuf-X - 2011 - What.flac
  Extracted successfully
  Conclusion: This track looks like CDDA with probability 100%
12 -===- H:\Music\Noisuf-X - 2011 - Dead End District\12 - Noisuf-X - 2011 - HiFi.flac
  Extracted successfully
  Conclusion: This track looks like CDDA with probability 100%
13 -===- H:\Music\Noisuf-X - 2011 - Dead End District\13 - Noisuf-X - 2011 - MurderHouse.flac
  Extracted successfully
  Conclusion: This track looks like CDDA with probability 99%
Правила, инструкции, FAQ!!!
Торрент  Добавлен [26 июн 2020, 17:27] Скачать торрент Магнет ссылка
Скачать торрент
[ Размер 17.54 КБ / Просмотров 11 ]

Статус
Проверен 
 
Размер  410.19 МБ
Приватный: Нет (DHT включён)
.torrent скачан  0
 


     Отправить личное сообщение
   
Страница 1 из 1
Показать сообщения за:  Поле сортировки  
Начать новую тему Ответить на тему


Сейчас этот форум просматривают: нет зарегистрированных пользователей и гости: 0


Вы не можете начинать темы
Вы не можете отвечать на сообщения
Вы не можете редактировать свои сообщения
Вы не можете удалять свои сообщения
Вы не можете добавлять вложения

Перейти:  
cron