Начать новую тему Ответить на тему
Статистика раздачи
Размер: 518.58 МБ | Добавлен: 26 июн 2020, 17:49 | Скачали: 0
Сидеров: 0  [0 байт/сек]    Личеров: 0  [0 байт/сек]
Пред. тема | След. тема 

Автор
Сообщение

СообщениеДобавлено: 26 июн 2020, 17:49 

Ответить с цитатой 

Noise Process - Neural Code
Жанр: EBM, Dark Electro, Aggrotech
Год выпуска диска: 2002
Производитель диска: USA
Аудио кодек: FLAC
Тип рипа: tracks
Битрейт аудио: lossless
Продолжительность: 75:47
Трэклист:
01 Incarnate (5:12)
02 More Than Once (6:29)
03 The Only One (5:23)
04 Drifting (5:58)
05 Dying World (5:46)
06 Sentinel (6:32)
07 Betrayed (6:26)
08 Elipsis... (2:57)
09 The Loss (6:20)
10 Presence (5:31)
11 E.C.T. (5:44)
12 Her Tears (4:02)
13 Dying World (Sr-Mx) (3:58)
14 Betrayed (Re:Mx) (5:56)
Доп. информация: Группа Noise Process (состав: M.Renfield & T.Garelick), исполняет club EBM - довольно мрачные электронные песни и очень холодные эпические инструментальные пьесы. Эти ребята отлично знают свое дело и industrial.
Exact Audio Copy V0.99 prebeta 1 from 25. May 2007
Отчёт EAC об извлечении, выполненном 18. апреля 2009, 1:32
Noise Process / Neural Code
Дисковод: Optiarc DVD RW AD-7191S Adapter: 5 ID: 0
Режим чтения : Достоверность
Использование точного потока : Да
Отключение кэша аудио : Да
Использование указателей C2 : Нет
Коррекция смещения при чтении : 6
Способность читать области Lead-in и Lead-out : Нет
Заполнение пропущенных сэмплов тишиной : Да
Удаление блоков с тишиной в начале и конце : Нет
Интерфейс : Установленный внешний ASPI-интерфейс
Обработка зазоров : Добавлено к предыдущему треку
Выходной формат : Пользовательский кодировщик
Выбранный битрейт : 768 kBit/s
Качество : Высокий
Добавление ID3-тэга : Да
Утилита сжатия : C:\Program Files (x86)\FLAC\flac.exe
Дополнительные параметры : -8 -V %s -o %d
TOC извлечённого CD
Трек | Старт | Длительность | Начальный сектор | Конечный сектор
---------------------------------------------------------------------
1 | 0:00.00 | 5:11.65 | 0 | 23389
2 | 5:11.65 | 6:27.32 | 23390 | 52446
3 | 11:39.22 | 5:21.01 | 52447 | 76522
4 | 17:00.23 | 5:55.68 | 76523 | 103215
5 | 22:56.16 | 5:44.05 | 103216 | 129020
6 | 28:40.21 | 6:31.60 | 129021 | 158405
7 | 35:12.06 | 6:23.46 | 158406 | 187176
8 | 41:35.52 | 2:55.54 | 187177 | 200355
9 | 44:31.31 | 6:18.57 | 200356 | 228762
10 | 50:50.13 | 5:29.67 | 228763 | 253504
11 | 56:20.05 | 5:42.21 | 253505 | 279175
12 | 62:02.26 | 4:00.09 | 279176 | 297184
13 | 66:02.35 | 3:55.72 | 297185 | 314881
14 | 69:58.32 | 5:56.26 | 314882 | 341607
Трек 1
Имя файла F:\E\Downlded\Distributive\Torrent_razdacha\Noise Process - Neural Code - 2002\01 - Incarnate.wav
Длина предзазора 0:00:02.00
Пиковый уровень 76.0 %
Качество трека 100.0 %
CRC копии 48D7A490
Копирование... OK
Трек 2
Имя файла F:\E\Downlded\Distributive\Torrent_razdacha\Noise Process - Neural Code - 2002\02 - More Than Once.wav
Длина предзазора 0:00:00.01
Пиковый уровень 96.6 %
Качество трека 100.0 %
CRC копии C42C9343
Копирование... OK
Трек 3
Имя файла F:\E\Downlded\Distributive\Torrent_razdacha\Noise Process - Neural Code - 2002\03 - The Only One.wav
Длина предзазора 0:00:00.01
Пиковый уровень 90.3 %
Качество трека 100.0 %
CRC копии 31FDA078
Копирование... OK
Трек 4
Имя файла F:\E\Downlded\Distributive\Torrent_razdacha\Noise Process - Neural Code - 2002\04 - Drifting.wav
Длина предзазора 0:00:00.01
Пиковый уровень 86.0 %
Качество трека 100.0 %
CRC копии 49A6BDE1
Копирование... OK
Трек 5
Имя файла F:\E\Downlded\Distributive\Torrent_razdacha\Noise Process - Neural Code - 2002\05 - Dying World.wav
Длина предзазора 0:00:00.01
Пиковый уровень 81.0 %
Качество трека 100.0 %
CRC копии DDC4777B
Копирование... OK
Трек 6
Имя файла F:\E\Downlded\Distributive\Torrent_razdacha\Noise Process - Neural Code - 2002\06 - Sentinel.wav
Длина предзазора 0:00:00.01
Пиковый уровень 96.6 %
Качество трека 99.9 %
CRC копии A97188EE
Копирование... OK
Трек 7
Имя файла F:\E\Downlded\Distributive\Torrent_razdacha\Noise Process - Neural Code - 2002\07 - Betrayed.wav
Длина предзазора 0:00:00.01
Пиковый уровень 83.5 %
Качество трека 100.0 %
CRC копии D6A68B88
Копирование... OK
Трек 8
Имя файла F:\E\Downlded\Distributive\Torrent_razdacha\Noise Process - Neural Code - 2002\08 - Elipsis....wav
Пиковый уровень 90.3 %
Качество трека 100.0 %
CRC копии 6DD16264
Копирование... OK
Трек 9
Имя файла F:\E\Downlded\Distributive\Torrent_razdacha\Noise Process - Neural Code - 2002\09 - The Loss.wav
Длина предзазора 0:00:00.01
Пиковый уровень 93.4 %
Качество трека 100.0 %
CRC копии FC70A196
Копирование... OK
Трек 10
Имя файла F:\E\Downlded\Distributive\Torrent_razdacha\Noise Process - Neural Code - 2002\10 - Presence.wav
Длина предзазора 0:00:00.01
Пиковый уровень 96.6 %
Качество трека 100.0 %
CRC копии 293E3923
Копирование... OK
Трек 11
Имя файла F:\E\Downlded\Distributive\Torrent_razdacha\Noise Process - Neural Code - 2002\11 - E.C.T..wav
Длина предзазора 0:00:00.01
Пиковый уровень 96.6 %
Качество трека 100.0 %
CRC копии 10A6D7DD
Копирование... OK
Трек 12
Имя файла F:\E\Downlded\Distributive\Torrent_razdacha\Noise Process - Neural Code - 2002\12 - Her Tears.wav
Длина предзазора 0:00:00.01
Пиковый уровень 96.6 %
Качество трека 100.0 %
CRC копии 61CA902A
Копирование... OK
Трек 13
Имя файла F:\E\Downlded\Distributive\Torrent_razdacha\Noise Process - Neural Code - 2002\13 - Dying World (sr-mx).wav
Длина предзазора 0:00:00.01
Пиковый уровень 91.0 %
Качество трека 100.0 %
CRC копии 4FBA1C08
Копирование... OK
Трек 14
Имя файла F:\E\Downlded\Distributive\Torrent_razdacha\Noise Process - Neural Code - 2002\14 - Betrayed (re-mx).wav
Длина предзазора 0:00:00.01
Пиковый уровень 83.5 %
Качество трека 100.0 %
CRC копии 35531573
Копирование... OK
Ошибок не произошло
Конец отчёта
Правила, инструкции, FAQ!!!
Торрент  Добавлен [26 июн 2020, 17:49] Скачать торрент Магнет ссылка
Скачать торрент
[ Размер 11.5 КБ / Просмотров 8 ]

Статус
Проверен 
 
Размер  518.58 МБ
Приватный: Нет (DHT включён)
.torrent скачан  0
 


     Отправить личное сообщение
   
Страница 1 из 1
Показать сообщения за:  Поле сортировки  
Начать новую тему Ответить на тему


Сейчас этот форум просматривают: нет зарегистрированных пользователей и гости: 0


Вы не можете начинать темы
Вы не можете отвечать на сообщения
Вы не можете редактировать свои сообщения
Вы не можете удалять свои сообщения
Вы не можете добавлять вложения

Перейти:  
cron