Начать новую тему Ответить на тему
Статистика раздачи
Размер: 530.46 МБ | Добавлен: 26 июн 2020, 20:29 | Скачали: 0
Сидеров: 0  [0 байт/сек]    Личеров: 0  [0 байт/сек]
Пред. тема | След. тема 

Автор
Сообщение

СообщениеДобавлено: 26 июн 2020, 20:29 

Ответить с цитатой 



Deadjump / Post Immortal


Жанр: EBM, Dark Electro, Aggrotech
Страна-производитель диска: Hungary
Год издания диска: 2008
Издатель (лейбл): Advoxya
Номер по каталогу: ad-hun-20-cd
Страна: Brasil
Аудио кодек: FLAC (*.flac)
Тип рипа: image+.cue
Битрейт аудио: lossless
Продолжительность: 01:13:50
Источник (релизер): Собственный диск
Наличие сканов в содержимом раздачи: нет
Треклист:
01. Save me from all my sins (cursed mix)
02. Resist (no weapons mix)
03. Life (coma mix)
04. Heartbreak (bleed mix)
05. Immortal (time to die mix)
06. Seed of deadjump (2008)
07. Rules of the next millennium
08. Joke
09. Repulsive
10. Post mortem (extended version)
11. Burnout (die braut mix)
12. Burnout (controlled collapse mix)
13. Burnout (iambia mix)
Код:
Exact Audio Copy V1.0 beta 1 from 15. November 2010
EAC extraction logfile from 7. January 2011, 16:13
Deadjump / Post Immortal
Used drive  : HL-DT-STDVDRAM_GH15N   Adapter: 3  ID: 1
Read mode               : Secure
Utilize accurate stream : Yes
Defeat audio cache      : Yes
Make use of C2 pointers : No
Read offset correction                      : 667
Overread into Lead-In and Lead-Out          : No
Fill up missing offset samples with silence : Yes
Delete leading and trailing silent blocks   : No
Null samples used in CRC calculations       : Yes
Used interface                              : Native Win32 interface for Win NT & 2000
Used output format              : User Defined Encoder
Selected bitrate                : 1024 kBit/s
Quality                         : High
Add ID3 tag                     : No
Command line compressor         : C:\Program Files\Exact Audio Copy\Flac\flac.exe
Additional command line options :  -8 -V %s
TOC of the extracted CD
     Track |   Start  |  Length  | Start sector | End sector
    ---------------------------------------------------------
        1  |  0:00.00 |  4:50.13 |         0    |    21762
        2  |  4:50.13 |  4:52.48 |     21763    |    43710
        3  |  9:42.61 |  4:55.10 |     43711    |    65845
        4  | 14:37.71 |  4:58.24 |     65846    |    88219
        5  | 19:36.20 |  5:11.50 |     88220    |   111594
        6  | 24:47.70 |  3:56.15 |    111595    |   129309
        7  | 28:44.10 |  4:54.09 |    129310    |   151368
        8  | 33:38.19 |  4:54.56 |    151369    |   173474
        9  | 38:33.00 |  4:14.01 |    173475    |   192525
       10  | 42:47.01 |  7:54.03 |    192526    |   228078
       11  | 50:41.04 |  5:42.09 |    228079    |   253737
       12  | 56:23.13 |  4:54.37 |    253738    |   275824
       13  | 61:17.50 |  5:09.32 |    275825    |   299031
Range status and errors
Selected range
     Filename C:\Downloads\Архивы\Deadjump - Post Immortal.wav
     Peak level 98.9 %
     Extraction speed 0.6 X
     Range quality 99.9 %
     Copy CRC B2B87A0F
     Copy OK
No errors occurred
AccurateRip summary
Track  1  not present in database
Track  2  not present in database
Track  3  not present in database
Track  4  not present in database
Track  5  not present in database
Track  6  not present in database
Track  7  not present in database
Track  8  not present in database
Track  9  not present in database
Track 10  not present in database
Track 11  not present in database
Track 12  not present in database
Track 13  not present in database
None of the tracks are present in the AccurateRip database
End of status report
Правила, инструкции, FAQ!!!
Торрент  Добавлен [26 июн 2020, 20:29] Скачать торрент Магнет ссылка
Скачать торрент
[ Размер 10.97 КБ / Просмотров 7 ]

Статус
Проверен 
 
Размер  530.46 МБ
Приватный: Нет (DHT включён)
.torrent скачан  0
 


     Отправить личное сообщение
   
Страница 1 из 1
Показать сообщения за:  Поле сортировки  
Начать новую тему Ответить на тему


Сейчас этот форум просматривают: нет зарегистрированных пользователей и гости: 0


Вы не можете начинать темы
Вы не можете отвечать на сообщения
Вы не можете редактировать свои сообщения
Вы не можете удалять свои сообщения
Вы не можете добавлять вложения

Перейти:  
cron