Начать новую тему Ответить на тему
Статистика раздачи
Размер: 208.62 МБ | Добавлен: 26 июн 2020, 16:57 | Скачали: 0
Сидеров: 0  [0 байт/сек]    Личеров: 0  [0 байт/сек]
Пред. тема | След. тема 

Автор
Сообщение

СообщениеДобавлено: 26 июн 2020, 16:57 

Ответить с цитатой 

Epsilon Eridani - 13.0.0.0.0: 4 Ahau 3 Kankin [EP]
Жанр: EBM, Dark Ambient
Год выпуска диска: 2010
Производитель диска: Mexico
Аудио кодек: FLAC
Тип рипа: image+.cue
Битрейт аудио: lossless
Продолжительность: 00:30:52
Трэклист:
1. world of the fourth sun - materialism (4:15)
2. 13.0.0.0.0... 4 ahau 3 kankin (6:12)
3. world of the fifth sun - transformation (5:28)
4. cosmic energy (3:14)
5. age of the light (5:17)
6. winter solstice 2012 (6:14)
Код:
Exact Audio Copy V0.99 prebeta 5 from 4. May 2009
Отчёт EAC об извлечении, выполненном 11. февраля 2010, 2:58
epsilon eridani / 13.0.0.0.0: 4 ahau 3 kankin
Дисковод: Optiarc DVD RW AD-7201S   Adapter: 2  ID: 1
Режим чтения                 : Достоверность
Использование точного потока : Да
Отключение кэша аудио        : Да
Использование указателей C2  : Нет
Коррекция смещения при чтении                     : 48
Способность читать области Lead-in и Lead-out     : Нет
Заполнение пропущенных сэмплов тишиной            : Да
Удаление блоков с тишиной в начале и конце        : Нет
При вычислениях CRC использовались нулевые сэмплы : Да
Интерфейс                                         : Встроенный Win32-интерфейс для Win
NT/2000
Выходной формат : Внутренние WAV-операции
Формат сэмплов  : 44.100 Гц; 16 бит; стерео
TOC извлечённого CD
     Трек |   Старт  | Длительность | Начальный сектор | Конечный сектор
    ---------------------------------------------------------------------
       1  |  0:02.00 |    4:17.13   |         150      |      19437
       2  |  4:19.13 |    6:14.09   |       19438      |      47496
       3  | 10:33.22 |    5:30.08   |       47497      |      72254
       4  | 16:03.30 |    3:16.25   |       72255      |      86979
       5  | 19:19.55 |    5:19.00   |       86980      |     110904
       6  | 24:38.55 |    6:14.12   |      110905      |     138966
Характеристики диапазона извлечения и сообщения об ошибках
Выбранный диапазон
     Имя файла D:\Раздачи\epsilon eridani - 13.0.0.0.0 4 ahau 3 kankin\epsilon eridani -
13.0.0.0.0  4 ahau 3 kankin.wav
     Пиковый уровень 100.0 %
     Качество диапазона 100.0 %
     CRC теста 8150DCC3
     CRC копии 8150DCC3
     Копирование... OK
Ошибок не произошло
AccurateRip: сводка
Трек  1  нет в базе данных
Трек  2  нет в базе данных
Трек  3  нет в базе данных
Трек  4  нет в базе данных
Трек  5  нет в базе данных
Трек  6  нет в базе данных
Ни одного трека нет в базе AccurateRip
Конец отчёта
Код:
Started at: четверг, 11. 02. 2010. - 3:40.53
1 file found
1 -===- D:\Раздачи\epsilon eridani - 13.0.0.0.0 4 ahau 3 kankin\epsilon eridani - 13.0.0.0.0  4 ahau 3 kankin.flac
  Extracted successfully
  Conclusion: this track is CDDA with probability 100%
  Tempfile successfully deleted.
Finished at: четверг, 11. 02. 2010. - 3:41.29 (operation time: 0:00.35)
Label:X-Line
Catalog#:None
Format:CD, EP
Released:21 Jan 2010
Genre:Electronic
Style:EBM, IDM, Dark Ambient
HQ Scans
Правила, инструкции, FAQ!!!
Торрент  Добавлен [26 июн 2020, 16:57] Скачать торрент Магнет ссылка
Скачать торрент
[ Размер 17.14 КБ / Просмотров 3 ]

Статус
Проверен 
 
Размер  208.62 МБ
Приватный: Нет (DHT включён)
.torrent скачан  0
 


     Отправить личное сообщение
   
Страница 1 из 1
Показать сообщения за:  Поле сортировки  
Начать новую тему Ответить на тему


Сейчас этот форум просматривают: нет зарегистрированных пользователей и гости: 0


Вы не можете начинать темы
Вы не можете отвечать на сообщения
Вы не можете редактировать свои сообщения
Вы не можете удалять свои сообщения
Вы не можете добавлять вложения

Перейти:  
cron