Начать новую тему Ответить на тему
Статистика раздачи
Размер: 619.73 МБ | Добавлен: 26 июн 2020, 17:14 | Скачали: 0
Сидеров: 0  [0 байт/сек]    Личеров: 0  [0 байт/сек]
Пред. тема | След. тема 

Автор
Сообщение

СообщениеДобавлено: 26 июн 2020, 17:14 

Ответить с цитатой 

Cyan Kills E.Coli - Do Not Open
Жанр: EBM
Страна-производитель диска: Germany
Год издания диска: 1995
Издатель (лейбл): Gymnastic Records
Номер по каталогу: GYM 5862
Аудио кодек: FLAC (*.flac)
Тип рипа: image+.cue
Битрейт аудио: lossless
Продолжительность: 00:59:56
Наличие сканов в содержимом раздачи: да, 600dpi PNG
01. Ragefun 4:02
02. Hateland 4:40
03. Failed Holographs 6:04
04. Discipline 5:20 (Written-By - Throbbing Gristle )
05. Do Not Open Before I Killed Myself 4:23
06. Room Without 3:23
07. Cryin' Out Loud 3:14
08. Les Debuts Dans La Vie 4:59
09. Oceans Of Faith 4:59
10. What? 18:44
Код:
Exact Audio Copy V0.99 prebeta 4 from 23. January 2008
Отчёт EAC об извлечении, выполненном 30. октября 2010, 22:52
Cyan Kills E.Coli / Do Not Open!
Дисковод: PIONEER DVD-RW  DVR-212   Adapter: 3  ID: 1
Режим чтения                 : Достоверность
Использование точного потока : Да
Отключение кэша аудио        : Да
Использование указателей C2  : Нет
Коррекция смещения при чтении                     : 48
Способность читать области Lead-in и Lead-out     : Нет
Заполнение пропущенных сэмплов тишиной            : Да
Удаление блоков с тишиной в начале и конце        : Нет
При вычислениях CRC использовались нулевые сэмплы : Да
Интерфейс                                         : Встроенный Win32-интерфейс для Win NT/2000
Выходной формат          : Пользовательский кодировщик
Выбранный битрейт        : 1024 kBit/s
Качество                 : Высокий
Добавление ID3-тэга      : Нет
Утилита сжатия           : C:\Program Files (x86)\Exact Audio Copy\FLAC\FLAC.EXE
Дополнительные параметры : -8 -V -T "ARTIST=%a" -T "TITLE=%t" -T "ALBUM=%g" -T "DATE=%y" -T "TRACKNUMBER=%n" -T "GENRE=%m" -T "COMMENT=%e" %s -o %d
TOC извлечённого CD
     Трек |   Старт  | Длительность | Начальный сектор | Конечный сектор
    ---------------------------------------------------------------------
       1  |  0:00.00 |    4:01.55   |           0      |      18129
       2  |  4:01.55 |    4:42.37   |       18130      |      39316
       3  |  8:44.17 |    6:07.38   |       39317      |      66879
       4  | 14:51.55 |    5:24.37   |       66880      |      91216
       5  | 20:16.17 |    4:24.37   |       91217      |     111053
       6  | 24:40.54 |    3:25.38   |      111054      |     126466
       7  | 28:06.17 |    3:13.00   |      126467      |     140941
       8  | 31:19.17 |    4:54.00   |      140942      |     162991
       9  | 36:13.17 |    4:58.43   |      162992      |     185384
      10  | 41:11.60 |   18:44.67   |      185385      |     269751
Характеристики диапазона извлечения и сообщения об ошибках
Выбранный диапазон
     Имя файла D:\РАЗДАЧИ!!!!\Подготовка к раздаче!!!\Cyan Kills E.Coli - Do Not Open! - 1995\Cyan Kills E.Coli - Do Not Open!.wav
     Пиковый уровень 98.0 %
     Качество диапазона 100.0 %
     CRC теста 451FC67C
     CRC копии 451FC67C
     Копирование... OK
Ошибок не произошло
AccurateRip: сводка
Трек  1  нет в базе данных
Трек  2  нет в базе данных
Трек  3  нет в базе данных
Трек  4  нет в базе данных
Трек  5  нет в базе данных
Трек  6  нет в базе данных
Трек  7  нет в базе данных
Трек  8  нет в базе данных
Трек  9  нет в базе данных
Трек 10  нет в базе данных
Ни одного трека нет в базе AccurateRip
Конец отчёта
Код:
 AUDIOCHECKER v2.0 beta (build 457) - by Dester - opdester@freemail.hu
~~~~~~~~~~~~~~~~~~~~~~~~~~~~~~~~~~
-=== DO NOT EDIT THIS FILE! ===-
Path: ...\Cyan Kills E.Coli - Do Not Open! - 1995
1 -=- Cyan Kills E.Coli - Do Not Open!.flac -=- CDDA (99%)
239420580
   
Label: Gymnastic Records
Catalog#: GYM 5862
Format: CD
Country: Germany
Released: 1995
Genre: Electronic
Style: EBM
Правила, инструкции, FAQ!!!
Торрент  Добавлен [26 июн 2020, 17:14] Скачать торрент Магнет ссылка
Скачать торрент
[ Размер 13.52 КБ / Просмотров 5 ]

Статус
Проверен 
 
Размер  619.73 МБ
Приватный: Нет (DHT включён)
.torrent скачан  0
 


     Отправить личное сообщение
   
Страница 1 из 1
Показать сообщения за:  Поле сортировки  
Начать новую тему Ответить на тему


Сейчас этот форум просматривают: нет зарегистрированных пользователей и гости: 0


Вы не можете начинать темы
Вы не можете отвечать на сообщения
Вы не можете редактировать свои сообщения
Вы не можете удалять свои сообщения
Вы не можете добавлять вложения

Перейти:  
cron