Начать новую тему Ответить на тему
Статистика раздачи
Размер: 163.44 МБ | Добавлен: 26 июн 2020, 17:32 | Скачали: 0
Сидеров: 0  [0 байт/сек]    Личеров: 0  [0 байт/сек]
Пред. тема | След. тема 

Автор
Сообщение

СообщениеДобавлено: 26 июн 2020, 17:32 

Ответить с цитатой 

Cryo / In Your Eyes (EP)
Жанр: EBM
Страна-производитель диска: Sweden
Год издания: 2013
Издатель (лейбл): Progress Productions
Страна: Sweden
Аудиокодек: FLAC (*.flac)
Тип рипа: tracks+.cue
Битрейт аудио: lossless
Продолжительность: 23:02
Источник (релизер): Собственный CD
Наличие сканов в содержимом раздачи: да
Треклист:
01 - In Your Eyes(Club Version)
02 - In Your Eyes(Haujobb Remix)
03 - The Portal
04 - In Your Eyes(Leaether Strip Remix)
05 - Higher
Код:
Exact Audio Copy V1.0 beta 3 from 29. August 2011
Отчёт EAC об извлечении, выполненном 7. ноября 2013, 17:53
Cryo / In Your Eyes
Дисковод: TSSTcorpCDDVDW SH-S202H   Adapter: 0  ID: 0
Режим чтения                 : Достоверность
Использование точного потока : Да
Отключение кэша аудио        : Да
Использование указателей C2  : Нет
Коррекция смещения при чтении                     : 6
Способность читать области Lead-in и Lead-out     : Нет
Заполнение пропущенных сэмплов тишиной            : Да
Удаление блоков с тишиной в начале и конце        : Нет
При вычислениях CRC использовались нулевые сэмплы : Да
Интерфейс                                         : Встроенный Win32-интерфейс для Win NT/2000
Обработка зазоров                                 : Добавлено к предыдущему треку
Выходной формат          : Пользовательский кодировщик
Выбранный битрейт        : 768 kBit/s
Качество                 : Высокий
Добавление ID3-тега      : Нет
Утилита сжатия           : C:\Program Files\Exact Audio Copy\FLAC\FLAC.EXE
Дополнительные параметры : -6 -V -T "ARTIST=%artist%" -T "TITLE=%title%" -T "ALBUM=%albumtitle%" -T "DATE=%year%" -T "TRACKNUMBER=%tracknr%" -T "GENRE=%genre%" -T "COMMENT=%comment%" -T "BAND=%albuminterpret%" -T "ALBUMARTIST=%albuminterpret%" -T "COMPOSER=%composer%" %haslyrics%--tag-from-file=LYRICS="%lyricsfile%"%haslyrics% -T "DISCNUMBER=%cdnumber%" -T "TOTALDISCS=%totalcds%" -T "TOTALTRACKS=%numtracks%" %hascover%--picture="%coverfile%"%hascover% %source% -o %dest%
TOC извлечённого CD
     Трек |   Старт  | Длительность | Начальный сектор | Конечный сектор
    ---------------------------------------------------------------------
       1  |  0:00.00 |    3:51.03   |           0      |      17327
       2  |  3:51.03 |    3:44.01   |       17328      |      34128
       3  |  7:35.04 |    6:19.20   |       34129      |      62573
       4  | 13:54.24 |    5:20.63   |       62574      |      86636
       5  | 19:15.12 |    3:47.30   |       86637      |     103691
Трек  1
     Имя файла K:\Downloads\01 In Your Eyes(Club Version).wav
     Длина предзазора  0:00:02.00
     Пиковый уровень 98.9 %
     Скорость извлечения 1.5 X
     Качество трека 99.9 %
     CRC теста A1ACE7F8
     CRC копии A1ACE7F8
     Трек не обнаружен в базе AccurateRip
     Копирование... OK
Трек  2
     Имя файла K:\Downloads\02 In Your Eyes(Haujobb Remix).wav
     Пиковый уровень 98.9 %
     Скорость извлечения 2.0 X
     Качество трека 100.0 %
     CRC теста 93CC5AE6
     CRC копии 93CC5AE6
     Трек не обнаружен в базе AccurateRip
     Копирование... OK
Трек  3
     Имя файла K:\Downloads\03 The Portal.wav
     Пиковый уровень 98.9 %
     Скорость извлечения 2.3 X
     Качество трека 100.0 %
     CRC теста C082D49D
     CRC копии C082D49D
     Трек не обнаружен в базе AccurateRip
     Копирование... OK
Трек  4
     Имя файла K:\Downloads\04 In Your Eyes(Leaether Strip Remix).wav
     Пиковый уровень 98.9 %
     Скорость извлечения 2.5 X
     Качество трека 100.0 %
     CRC теста A0774123
     CRC копии A0774123
     Трек не обнаружен в базе AccurateRip
     Копирование... OK
Трек  5
     Имя файла K:\Downloads\05 Higher.wav
     Пиковый уровень 98.9 %
     Скорость извлечения 2.1 X
     Качество трека 99.9 %
     CRC теста 4FADAE06
     CRC копии 4FADAE06
     Трек не обнаружен в базе AccurateRip
     Копирование... OK
Ни одного трека нет в базе AccurateRip
Ошибок не произошло
Конец отчёта
Код:
REM GENRE EBM
REM DATE 2013
REM DISCID 39056605
REM COMMENT "ExactAudioCopy v1.0b3"
PERFORMER "Cryo"
TITLE "In Your Eyes"
FILE "01 In Your Eyes(Club Version).wav" WAVE
  TRACK 01 AUDIO
    TITLE "In Your Eyes(Club Version)"
    PERFORMER "Cryo"
    INDEX 01 00:00:00
FILE "02 In Your Eyes(Haujobb Remix).wav" WAVE
  TRACK 02 AUDIO
    TITLE "In Your Eyes(Haujobb Remix)"
    PERFORMER "Cryo"
    INDEX 01 00:00:00
FILE "03 The Portal.wav" WAVE
  TRACK 03 AUDIO
    TITLE "The Portal"
    PERFORMER "Cryo"
    INDEX 01 00:00:00
FILE "04 In Your Eyes(Leaether Strip Remix).wav" WAVE
  TRACK 04 AUDIO
    TITLE "In Your Eyes(Leaether Strip Remix)"
    PERFORMER "Cryo"
    INDEX 01 00:00:00
FILE "05 Higher.wav" WAVE
  TRACK 05 AUDIO
    TITLE "Higher"
    PERFORMER "Cryo"
    INDEX 01 00:00:00
Правила, инструкции, FAQ!!!
Торрент  Добавлен [26 июн 2020, 17:32] Скачать торрент Магнет ссылка
Скачать торрент
[ Размер 13.75 КБ / Просмотров 1 ]

Статус
Проверен 
 
Размер  163.44 МБ
Приватный: Нет (DHT включён)
.torrent скачан  0
 


     Отправить личное сообщение
   
Страница 1 из 1
Показать сообщения за:  Поле сортировки  
Начать новую тему Ответить на тему


Сейчас этот форум просматривают: нет зарегистрированных пользователей и гости: 0


Вы не можете начинать темы
Вы не можете отвечать на сообщения
Вы не можете редактировать свои сообщения
Вы не можете удалять свои сообщения
Вы не можете добавлять вложения

Перейти:  
cron