Начать новую тему Ответить на тему
Статистика раздачи
Размер: 524.92 МБ | Добавлен: 26 июн 2020, 17:32 | Скачали: 0
Сидеров: 0  [0 байт/сек]    Личеров: 0  [0 байт/сек]
Пред. тема | След. тема 

Автор
Сообщение

СообщениеДобавлено: 26 июн 2020, 17:32 

Ответить с цитатой 

Cryo / Холод
Жанр: EBM
Страна-производитель диска
: Россия
Год издания: 2012
Издатель (лейбл): Razgrom Music
Номер по каталогу: RAZ 003
Страна: Sweden
Аудиокодек: FLAC (*.flac)
Тип рипа: image+.cue
Битрейт аудио: lossless
Продолжительность: 01ч:18м:36с
Источник (релизер): КотDNC
Наличие сканов в содержимом раздачи: нет
Треклист:
01 - In The Shadows (Russian Mix)
02 - Weitergehen
03 - The Pain
04 - Change (80ies Mix)
05 - Go To War
06 - I Die Every Day
07 - Zero-G
08 - Does It Hurt
09 - Rage
10 - Guantanamo Bay
11 - Singularity (Future Population Mix)
12 - Freedom
13 - I Tune In
14 - Vengeance
15 - Substance (OD Mix)
16 - My Wall
Код:
Exact Audio Copy V1.0 beta 3 from 29. August 2011
Отчёт EAC об извлечении, выполненном 12. июля 2012, 13:14
Cryo / Холод
Дисковод: Optiarc DVD RW AD-5240S   Adapter: 0  ID: 1
Режим чтения                 : Достоверность
Использование точного потока : Да
Отключение кэша аудио        : Да
Использование указателей C2  : Нет
Коррекция смещения при чтении                     : 48
Способность читать области Lead-in и Lead-out     : Нет
Заполнение пропущенных сэмплов тишиной            : Да
Удаление блоков с тишиной в начале и конце        : Нет
При вычислениях CRC использовались нулевые сэмплы : Да
Интерфейс                                         : Встроенный Win32-интерфейс для Win NT/2000
Выходной формат          : Пользовательский кодировщик
Выбранный битрейт        : 128 kBit/s
Качество                 : Высокий
Добавление ID3-тега      : Нет
Утилита сжатия           : C:\Program Files\Exact Audio Copy\Flac\flac.exe
Дополнительные параметры : -V -8 -T "Date=%year%" -T "Genre=%genre%" %source%
TOC извлечённого CD
     Трек |   Старт  | Длительность | Начальный сектор | Конечный сектор
    ---------------------------------------------------------------------
       1  |  0:00.00 |    5:09.12   |           0      |      23186
       2  |  5:09.12 |    5:16.74   |       23187      |      46960
       3  | 10:26.11 |    4:38.14   |       46961      |      67824
       4  | 15:04.25 |    4:01.74   |       67825      |      85973
       5  | 19:06.24 |    5:49.72   |       85974      |     112220
       6  | 24:56.21 |    4:17.71   |      112221      |     131566
       7  | 29:14.17 |    4:59.20   |      131567      |     154011
       8  | 34:13.37 |    4:49.23   |      154012      |     175709
       9  | 39:02.60 |    4:33.35   |      175710      |     196219
      10  | 43:36.20 |    4:42.33   |      196220      |     217402
      11  | 48:18.53 |    4:47.03   |      217403      |     238930
      12  | 53:05.56 |    4:29.70   |      238931      |     259175
      13  | 57:35.51 |    5:43.65   |      259176      |     284965
      14  | 63:19.41 |    4:03.10   |      284966      |     303200
      15  | 67:22.51 |    6:48.00   |      303201      |     333800
      16  | 74:10.51 |    4:25.68   |      333801      |     353743
Характеристики диапазона извлечения и сообщения об ошибках
Выбранный диапазон
     Имя файла D:\торренты\Cryo - Холод (2012)\Cryo - Холод.wav
     Пиковый уровень 100.0 %
     Скорость извлечения 4.5 X
     Качество диапазона 100.0 %
     CRC теста 9EC2AA26
     CRC копии 9EC2AA26
     Копирование... OK
Ошибок не произошло
AccurateRip: сводка
Трек  1  отсутствует в базе данных
Трек  2  отсутствует в базе данных
Трек  3  отсутствует в базе данных
Трек  4  отсутствует в базе данных
Трек  5  отсутствует в базе данных
Трек  6  отсутствует в базе данных
Трек  7  отсутствует в базе данных
Трек  8  отсутствует в базе данных
Трек  9  отсутствует в базе данных
Трек 10  отсутствует в базе данных
Трек 11  отсутствует в базе данных
Трек 12  отсутствует в базе данных
Трек 13  отсутствует в базе данных
Трек 14  отсутствует в базе данных
Трек 15  отсутствует в базе данных
Трек 16  отсутствует в базе данных
Ни одного трека нет в базе AccurateRip
Конец отчёта
==== Контрольная сумма отчёта 3DAB2C290FC24EB2AB940369DCA911698AB74FD85347A5AFE623EF4A43F9D290 ====
Код:
-----------------------
DON'T MODIFY THIS FILE
-----------------------
PERFORMER: auCDtect Task Manager, ver. 1.5.1RC6 build 1.5.1.7
Copyright (c) 2008-2010 y-soft. All rights reserved
[url=http://y-soft.org]http://y-soft.org[/url]
ANALYZER: auCDtect: CD records authenticity detector, version 0.8.2
Copyright (c) 2004 Oleg Berngardt. All rights reserved.
Copyright (c) 2004 Alexander Djourik. All rights reserved.
FILE: Cryo - Холод.flac
  Size: 550272592 Hash: E001757086BE3599897C0BA37A5F2FA0 Accuracy: -m0
  Conclusion: CDDA 100%
  Signature: 863FCB6C21C86D38A85E5627F0631E687078A41C
Доп. информация: Тираж релиза строго лимитирован – 500 копий.
Проект CRYO – далеко не первое детище жителя шведского города Мальме Мартина Рудефельта. Музыкой, а точнее электронной музыкой, он занимается уже не один десяток лет, но долгое время его активность ограничивалась другим проектом, носившим название SOUND SEQUENCE, который был более сосредоточен на synth-pop/darkwave звучании. CRYO же исследует прежде всего cold EBM, electro-industrial. Хотя сам Мартин не очень любит, когда его музыку пытаются классифицировать и определять к какому-то конкретному жанру, предпочитая всегда обозначать ее просто как Electro. После выхода дебютного альбома ''Cryogenic'' проект привлек самое пристальное внимание всех профильных Интернет-СМИ, номинировался на Scandinavian Alternative Music Awards и сразу же прочно вошел в число безусловных лидеров европейской EBM сцены. Вскоре полноправным вторым участником CRYO стал шеф лейбла Progress Productions Торни Готтберг (в прошлом – фронтмен группы PROJECT-X), который стал отвечать за клавишные и бэк-вокал на концертных шоу. Благодаря работе с букинг-агенством Syn Promotion СRYO уже дважды побывали в России с массивными турами, в том числе выступали в Москве вместе с DIARY OF DREAMS и коллегами по лейблу NECRO FACILITY.
Razgrom Music с гордостью представляет свой первый эксклюзивный релиз: ретроспективу творчества одной из самых актуальных и значимых групп на EBM/Electro сцене – CRYO (Швеция). Ни на йоту не поддающийся влияниям современных псевдо-модных трендов проект харизматичного Мартина Рудефельта, наглядный пример того, что даже сегодня в данном консервативном и изученном всеми вдоль и поперек жанре, можно писать музыку на «на все времена». Тотально электронный, интеллигентно-строгий, угрюмый и мрачный саунд, выверенная sci-fi атмосфера, пробирающий насквозь вокал – все эти качества электро-индустриальной группы топ-класса присутствуют в музыке шведа. И в таком уникальном сочетании, которое позволяет считать звучание CRYO почти эталонным для стиля! Данная компиляция, подготовленная специально для российского рынка, содержит не только лучшие песни проекта разных лет, но и четыре никогда ранее не издававшихся трека и ремикса! Более того – открывает альбом абсолютно новая версия классического хита "In The Shadows" (Russian Mix), которая была заново записана именно для CD "Холод"! Скандинавская холодность в сочетании с безупречным чувством стиля, перфекционизм аранжировок, отточенная лаконичность музыкальных решений и формулировок – одни из составляющих уникального саунда CRYO.
Martin Rudefelt (music, vocals, lyrics)
Torny Gottberg (live keys, drums, backing vocals)
Правила, инструкции, FAQ!!!
Торрент  Добавлен [26 июн 2020, 17:32] Скачать торрент Магнет ссылка
Скачать торрент
[ Размер 10.87 КБ / Просмотров 8 ]

Статус
Проверен 
 
Размер  524.92 МБ
Приватный: Нет (DHT включён)
.torrent скачан  0
 


     Отправить личное сообщение
   
Страница 1 из 1
Показать сообщения за:  Поле сортировки  
Начать новую тему Ответить на тему


Сейчас этот форум просматривают: нет зарегистрированных пользователей и гости: 0


Вы не можете начинать темы
Вы не можете отвечать на сообщения
Вы не можете редактировать свои сообщения
Вы не можете удалять свои сообщения
Вы не можете добавлять вложения

Перейти:  
cron