Начать новую тему Ответить на тему
Статистика раздачи
Размер: 262.98 МБ | Добавлен: 26 июн 2020, 17:29 | Скачали: 0
Сидеров: 0  [0 байт/сек]    Личеров: 0  [0 байт/сек]
Пред. тема | След. тема 

Автор
Сообщение

СообщениеДобавлено: 26 июн 2020, 17:29 

Ответить с цитатой 

Cryo / Beyond(EP)
Жанр: EBM
Страна-производитель диска: Sweden
Год издания диска: 2011
Издатель (лейбл): Progress Productions
Страна: Sweden
Аудиокодек: FLAC (*.flac)
Тип рипа: tracks+.cue
Битрейт аудио: lossless
Продолжительность: 33:59
Источник (релизер): Собственный CD
Наличие сканов в содержимом раздачи: да
Треклист:
01 - Cryo - First Light
02 - Cryo - Escape Velocity
03 - Cryo - Zero-G
04 - Cryo - Event Horizon
05 - Cryo - Singularity
06 - Cryo - Beyond
07 - Cryo - Singularity - Future Population mix
28.11.11 раздача обновлена. Обновите торрент. Прошу прощения за доставленные неудобства.
Код:
Exact Audio Copy V1.0 beta 2 from 29. April 2011
Отчёт EAC об извлечении, выполненном 28. ноября 2011, 18:03
 Cryo /  Beyond
Дисковод: Optiarc DVD RW AD-7173A   Adapter: 0  ID: 1
Режим чтения                 : Достоверность
Использование точного потока : Да
Отключение кэша аудио        : Да
Использование указателей C2  : Нет
Коррекция смещения при чтении                     : 48
Способность читать области Lead-in и Lead-out     : Нет
Заполнение пропущенных сэмплов тишиной            : Да
Удаление блоков с тишиной в начале и конце        : Нет
При вычислениях CRC использовались нулевые сэмплы : Да
Интерфейс                                         : Встроенный Win32-интерфейс для Win NT/2000
Обработка зазоров                                 : Добавлено к предыдущему треку
Выходной формат          : Пользовательский кодировщик
Выбранный битрейт        : 768 kBit/s
Качество                 : Высокий
Добавление ID3-тега      : Нет
Утилита сжатия           : C:\Program Files\Exact Audio Copy\Flac\flac.exe
Дополнительные параметры : -6 -V -T "ARTIST=%artist%" -T "TITLE=%title%" -T "ALBUM=%albumtitle%" -T "DATE=%year%" -T "TRACKNUMBER=%tracknr%" -T "GENRE=%genre%" -T "COMMENT=%comment%" -T "BAND=%albuminterpret%" -T "COMPOSER=%composer%" %haslyrics%--tag-from-
TOC извлечённого CD
     Трек |   Старт  | Длительность | Начальный сектор | Конечный сектор
    ---------------------------------------------------------------------
       1  |  0:00.00 |    4:12.47   |           0      |      18946
       2  |  4:12.47 |    3:32.01   |       18947      |      34847
       3  |  7:44.48 |    4:52.22   |       34848      |      56769
       4  | 12:36.70 |    2:34.55   |       56770      |      68374
       5  | 15:11.50 |    4:54.54   |       68375      |      90478
       6  | 20:06.29 |    9:03.30   |       90479      |     131233
       7  | 29:09.59 |    4:49.20   |      131234      |     152928
Трек  1
     Имя файла C:\Documents and Settings\Пользователь\Мои документы\Моя музыка\01. First Light.wav
     Пиковый уровень 94.7 %
     Скорость извлечения 1.1 X
     Качество трека 99.9 %
     CRC теста 443C51FA
     CRC копии 443C51FA
     Трек не обнаружен в базе AccurateRip
     Копирование... OK
Трек  2
     Имя файла C:\Documents and Settings\Пользователь\Мои документы\Моя музыка\02. Escape Velocity.wav
     Пиковый уровень 94.7 %
     Скорость извлечения 1.3 X
     Качество трека 100.0 %
     CRC теста 92122685
     CRC копии 92122685
     Трек не обнаружен в базе AccurateRip
     Копирование... OK
Трек  3
     Имя файла C:\Documents and Settings\Пользователь\Мои документы\Моя музыка\03. Zero-G.wav
     Пиковый уровень 94.7 %
     Скорость извлечения 1.5 X
     Качество трека 100.0 %
     CRC теста 8088EF74
     CRC копии 8088EF74
     Трек не обнаружен в базе AccurateRip
     Копирование... OK
Трек  4
     Имя файла C:\Documents and Settings\Пользователь\Мои документы\Моя музыка\04. Event Horizon.wav
     Пиковый уровень 94.7 %
     Скорость извлечения 1.4 X
     Качество трека 100.0 %
     CRC теста 957402B4
     CRC копии 957402B4
     Трек не обнаружен в базе AccurateRip
     Копирование... OK
Трек  5
     Имя файла C:\Documents and Settings\Пользователь\Мои документы\Моя музыка\05. Singularity.wav
     Пиковый уровень 94.7 %
     Скорость извлечения 1.7 X
     Качество трека 100.0 %
     CRC теста 5C38D7F2
     CRC копии 5C38D7F2
     Трек не обнаружен в базе AccurateRip
     Копирование... OK
Трек  6
     Имя файла C:\Documents and Settings\Пользователь\Мои документы\Моя музыка\06. Beyond.wav
     Пиковый уровень 94.7 %
     Скорость извлечения 2.0 X
     Качество трека 100.0 %
     CRC теста 6480F894
     CRC копии 6480F894
     Трек не обнаружен в базе AccurateRip
     Копирование... OK
Трек  7
     Имя файла C:\Documents and Settings\Пользователь\Мои документы\Моя музыка\07. Singularity - Future Population mix.wav
     Пиковый уровень 94.7 %
     Скорость извлечения 2.0 X
     Качество трека 100.0 %
     CRC теста 6E9223C0
     CRC копии 6E9223C0
     Трек не обнаружен в базе AccurateRip
     Копирование... OK
Ни одного трека нет в базе AccurateRip
Ошибок не произошло
Конец отчёта
Код:
REM GENRE Industrial
REM DATE 2011
REM DISCID 5707F707
REM COMMENT "ExactAudioCopy v1.0b2"
PERFORMER " Cryo"
TITLE " Beyond"
FILE "01. First Light.flac" WAVE
  TRACK 01 AUDIO
    TITLE "First Light"
    PERFORMER " Cryo"
    INDEX 01 00:00:00
FILE "02. Escape Velocity.flac" WAVE
  TRACK 02 AUDIO
    TITLE "Escape Velocity"
    PERFORMER " Cryo"
    INDEX 01 00:00:00
FILE "03. Zero-G.flac" WAVE
  TRACK 03 AUDIO
    TITLE "Zero-G"
    PERFORMER " Cryo"
    INDEX 01 00:00:00
FILE "04. Event Horizon.flac" WAVE
  TRACK 04 AUDIO
    TITLE "Event Horizon"
    PERFORMER " Cryo"
    INDEX 01 00:00:00
FILE "05. Singularity.flac" WAVE
  TRACK 05 AUDIO
    TITLE "Singularity"
    PERFORMER " Cryo"
    INDEX 01 00:00:00
FILE "06. Beyond.flac" WAVE
  TRACK 06 AUDIO
    TITLE "Beyond"
    PERFORMER " Cryo"
    INDEX 01 00:00:00
FILE "07. Singularity - Future Population mix.flac" WAVE
  TRACK 07 AUDIO
    TITLE "Singularity - Future Population mix"
    PERFORMER " Cryo"
    INDEX 01 00:00:00
Код:
[img]http://s53.radikal.ru/i141/1111/d8/eb668b222cc0.jpg[/img]
Правила, инструкции, FAQ!!!
Торрент  Добавлен [26 июн 2020, 17:29] Скачать торрент Магнет ссылка
Скачать торрент
[ Размер 11.39 КБ / Просмотров 12 ]

Статус
Проверен 
 
Размер  262.98 МБ
Приватный: Нет (DHT включён)
.torrent скачан  0
 


     Отправить личное сообщение
   
Страница 1 из 1
Показать сообщения за:  Поле сортировки  
Начать новую тему Ответить на тему


Сейчас этот форум просматривают: нет зарегистрированных пользователей и гости: 0


Вы не можете начинать темы
Вы не можете отвечать на сообщения
Вы не можете редактировать свои сообщения
Вы не можете удалять свои сообщения
Вы не можете добавлять вложения

Перейти:  
cron