Начать новую тему Ответить на тему
Статистика раздачи
Размер: 1.44 ГБ | Добавлен: 26 июн 2020, 17:17 | Скачали: 0
Сидеров: 1  [0 байт/сек]    Личеров: 0  [0 байт/сек]
Пред. тема | След. тема 

Автор
Сообщение

СообщениеДобавлено: 26 июн 2020, 17:17 

Ответить с цитатой 



Ворвавшись на музыкальный рынок Европы, этот достаточно молодой проект из Швеции сумел доказать, что современная индустриальная музыка находится не в упадке, а вполне даже может предложить публике новый и интересный путь развития, новый виток холодного ebm жанра.
CRYO действительно выделяется из ряда нынешнего поколения творцов электронной тяжёлой музыки, создавая что-то непохожее и столь знакомое душе, синтезируя и комбинируя криогенный звук сэмплов неживого механизма с витальным голосом вокалиста.
Формула состава:
∑ (Torny, Martin) = (∞, CRYO)

Жанр
: EBM
Тип рипа: image+cue
Аудио кодек: lossles
Продолжительность: ~04:10:00
Треклист
01 Waiting For The Machine [2:02]
02 Does It Hurt [4:51]
03 The Pain [4:38]
04 In The Shadows [4:30]
05 One [3:46]
06 Want It [4:36]
07 Uniform [5:36]
08 Utopia [4:57]
09 Vengeance [4:03]
10 Machine [5:38]
----------
Общее время звучания: 39:02:12
Благодарю пользователя maxmin за предоставленный релиз
#77701 My Wall (Club Edit) [4:29]
02 Inhale / Exhale (Original) [5:32]
03 Freedom [4:31]
04 Inhale / Exhale (Terror Punk Syndicate Remix) [3:32]
05 My Wall (Original) [6:22]
06 Go To War [5:56]
07 Inhale / Exhale (traKKtor Remix) [6:24]
08 Body To Body (Front 242 Cover) [3:17]
----------
Общее время звучания: 36:50:09
#77701 Prelude - Waves Of Sin [2:44]
02 I Tune In [5:41]
03 Weitergehen [5:16]
04 Substance [5:16]
05 Hit Me Once [3:40]
06 Counting Down Again [5:04]
07 Guantanamo Bay [4:38]
08 Contract Killer [6:28]
09 I Die Every Day [4:21]
10 Forgotten [6:51]
11 Postlude [3:10]
----------
Общее время звучания: 49:59:05
[CD1]
01 Prelude - Waves Of Sin [2:44]
02 I Tune In [5:41]
03 Weitergehen [5:16]
04 Substance [5:16]
05 Hit Me Once [3:40]
06 Counting Down Again [5:04]
07 Guantanamo Bay [4:38]
08 Contract Killer [6:28]
09 I Die Every Day [4:21]
10 Forgotten [6:51]
11 Postlude [3:10]
[CD2]
01 Guantanamo Bay (Terrorist Mix) [5:28]
02 World Of Fools [3:53]
03 I Tune In (Project-X Remix) [5:20]
04 Insane [4:35]
05 Counting Down Again (Mr Jones Machine Remix) [5:28]
06 Hit Me Once (2005 Live Version) 3:53
----------
Общее время звучания: CD1 - 53:09, CD2 - 28:37
Благодарю пользователя Worlock_1 за предоставленный релиз

Логи EAC
Exact Audio Copy V0.99 prebeta 5 from 4. May 2009
EAC extraction logfile from 20. September 2009, 17:15
Cryo / Cryogenic
Used drive : PIONEER DVD-RW DVR-215D Adapter: 0 ID: 0
Read mode : Secure
Utilize accurate stream : Yes
Defeat audio cache : Yes
Make use of C2 pointers : No
Read offset correction : 48
Overread into Lead-In and Lead-Out : No
Fill up missing offset samples with silence : Yes
Delete leading and trailing silent blocks : No
Null samples used in CRC calculations : Yes
Used interface : Native Win32 interface for Win NT & 2000
Used output format : Internal WAV Routines
Sample format : 44.100 Hz; 16 Bit; Stereo
TOC of the extracted CD
Track | Start | Length | Start sector | End sector
---------------------------------------------------------
1 | 0:00.00 | 2:02.15 | 0 | 9164
2 | 2:02.15 | 4:51.00 | 9165 | 30989
3 | 6:53.15 | 4:38.26 | 30990 | 51865
4 | 11:31.41 | 4:30.05 | 51866 | 72120
5 | 16:01.46 | 3:46.18 | 72121 | 89088
6 | 19:47.64 | 4:36.03 | 89089 | 109791
7 | 24:23.67 | 5:36.33 | 109792 | 135024
8 | 30:00.25 | 4:57.71 | 135025 | 157370
9 | 34:58.21 | 4:03.66 | 157371 | 175661
10 | 39:02.12 | 5:38.60 | 175662 | 201071
Range status and errors
Selected range
Filename E:\UPGRADE\Cryo - Cryogenic\Cryo - Cryogenic.wav
Peak level 97.7 %
Range quality 100.0 %
Test CRC D1F53FCA
Copy CRC D1F53FCA
Copy OK
No errors occurred
AccurateRip summary
Track 1 not present in database
Track 2 not present in database
Track 3 not present in database
Track 4 not present in database
Track 5 not present in database
Track 6 not present in database
Track 7 not present in database
Track 8 not present in database
Track 9 not present in database
Track 10 not present in database
None of the tracks are present in the AccurateRip database
End of status report
Exact Audio Copy V0.99 prebeta 4 from 23. January 2008
EAC extraction logfile from 30. October 2010, 15:02
Cryo / Mixed Emotions
Used drive : _NEC DVD_RW ND-3520A Adapter: 0 ID: 1
Read mode : Secure
Utilize accurate stream : Yes
Defeat audio cache : Yes
Make use of C2 pointers : No
Read offset correction : 48
Overread into Lead-In and Lead-Out : No
Fill up missing offset samples with silence : Yes
Delete leading and trailing silent blocks : No
Null samples used in CRC calculations : Yes
Used interface : Native Win32 interface for Win NT & 2000
Used output format : User Defined Encoder
Selected bitrate : 128 kBit/s
Quality : High
Add ID3 tag : No
Command line compressor : C:\Program Files\Exact Audio Copy\Flac\flac.exe
Additional command line options : -8 -V %s
TOC of the extracted CD
Track | Start | Length | Start sector | End sector
---------------------------------------------------------
1 | 0:00.00 | 4:29.68 | 0 | 20242
2 | 4:29.68 | 5:32.22 | 20243 | 45164
3 | 10:02.15 | 4:31.64 | 45165 | 65553
4 | 14:34.04 | 3:32.33 | 65554 | 81486
5 | 18:06.37 | 6:22.56 | 81487 | 110192
6 | 24:29.18 | 5:56.55 | 110193 | 136947
7 | 30:25.73 | 6:24.11 | 136948 | 165758
8 | 36:50.09 | 3:17.40 | 165759 | 180573
Range status and errors
Selected range
Filename C:\Documents and Settings\Александр\Мои документы\2007 - Mixed Emotions\2007 - Mixed Emotions - Cryo.wav
Peak level 97.7 %
Range quality 99.9 %
Test CRC D7D3B9E6
Copy CRC D7D3B9E6
Copy OK
No errors occurred
AccurateRip summary
Track 1 accurately ripped (confidence 1) [AB4F9801]
Track 2 accurately ripped (confidence 1) [80BE842A]
Track 3 accurately ripped (confidence 1) [B382D5FD]
Track 4 accurately ripped (confidence 1) [B1823C66]
Track 5 accurately ripped (confidence 1) [E901B798]
Track 6 accurately ripped (confidence 1) [4B224B58]
Track 7 accurately ripped (confidence 1) [F1A42AE7]
Track 8 accurately ripped (confidence 1) [310195F5]
All tracks accurately ripped
End of status report
Exact Audio Copy V0.99 prebeta 4 from 23. January 2008
EAC extraction logfile from 30. October 2010, 15:28
Cryo / Hidden Aggression
Used drive : _NEC DVD_RW ND-3520A Adapter: 0 ID: 1
Read mode : Secure
Utilize accurate stream : Yes
Defeat audio cache : Yes
Make use of C2 pointers : No
Read offset correction : 48
Overread into Lead-In and Lead-Out : No
Fill up missing offset samples with silence : Yes
Delete leading and trailing silent blocks : No
Null samples used in CRC calculations : Yes
Used interface : Native Win32 interface for Win NT & 2000
Used output format : User Defined Encoder
Selected bitrate : 128 kBit/s
Quality : High
Add ID3 tag : No
Command line compressor : C:\Program Files\Exact Audio Copy\Flac\flac.exe
Additional command line options : -8 -V %s
TOC of the extracted CD
Track | Start | Length | Start sector | End sector
---------------------------------------------------------
1 | 0:00.00 | 2:44.05 | 0 | 12304
2 | 2:44.05 | 5:41.14 | 12305 | 37893
3 | 8:25.19 | 5:15.39 | 37894 | 61557
4 | 13:40.58 | 5:15.61 | 61558 | 85243
5 | 18:56.44 | 3:39.73 | 85244 | 101741
6 | 22:36.42 | 5:03.57 | 101742 | 124523
7 | 27:40.24 | 4:38.25 | 124524 | 145398
8 | 32:18.49 | 6:28.02 | 145399 | 174500
9 | 38:46.51 | 4:21.14 | 174501 | 194089
10 | 43:07.65 | 6:51.15 | 194090 | 224929
11 | 49:59.05 | 3:10.22 | 224930 | 239201
Range status and errors
Selected range
Filename C:\Documents and Settings\Александр\Мои документы\2010 - Hidden Aggression\2010 - Hidden Aggression - Cryo.wav
Peak level 99.5 %
Range quality 99.9 %
Test CRC 9CD0E981
Copy CRC 9CD0E981
Copy OK
No errors occurred
AccurateRip summary
Track 1 accurately ripped (confidence 3) [6D83F027]
Track 2 accurately ripped (confidence 3) [42979514]
Track 3 accurately ripped (confidence 3) [0C92F250]
Track 4 accurately ripped (confidence 3) [6E45892C]
Track 5 accurately ripped (confidence 3) [1CB35FE9]
Track 6 accurately ripped (confidence 3) [9758C57E]
Track 7 accurately ripped (confidence 3) [98DC9A6E]
Track 8 accurately ripped (confidence 3) [75BA461E]
Track 9 accurately ripped (confidence 3) [4114F574]
Track 10 accurately ripped (confidence 3) [BA99FC6A]
Track 11 not present in database
0 track(s) accurately ripped
1 track(s) not present in the AccurateRip database
Some tracks could not be verified as accurate
End of status report
Exact Audio Copy V0.99 prebeta 5 from 4. May 2009
EAC extraction logfile from 9. March 2010, 20:52
Cryo / Hidden Aggression [2CD LE JWLCS, cat. PROCD023L] - DISC 1
Used drive : TDK CDRW4800B Adapter: 3 ID: 1
Read mode : Secure
Utilize accurate stream : Yes
Defeat audio cache : Yes
Make use of C2 pointers : No
Read offset correction : 6
Overread into Lead-In and Lead-Out : No
Fill up missing offset samples with silence : Yes
Delete leading and trailing silent blocks : No
Null samples used in CRC calculations : Yes
Used interface : Installed external ASPI interface
Gap handling : Appended to previous track
Used output format : User Defined Encoder
Selected bitrate : 1024 kBit/s
Quality : High
Add ID3 tag : No
Command line compressor : E:\flac.exe
Additional command line options : -V -8 -T "artist=%a" -T "title=%t" -T "album=%g" -T "date=%y" -T "tracknumber=%n" -T "genre=%m" -T "comment=Lbl:Progress Productions C:PROCD023L BC:7393210326095" %s
TOC of the extracted CD
Track | Start | Length | Start sector | End sector
---------------------------------------------------------
1 | 0:00.00 | 2:44.05 | 0 | 12304
2 | 2:44.05 | 5:41.14 | 12305 | 37893
3 | 8:25.19 | 5:15.39 | 37894 | 61557
4 | 13:40.58 | 5:15.61 | 61558 | 85243
5 | 18:56.44 | 3:39.73 | 85244 | 101741
6 | 22:36.42 | 5:03.57 | 101742 | 124523
7 | 27:40.24 | 4:38.25 | 124524 | 145398
8 | 32:18.49 | 6:28.02 | 145399 | 174500
9 | 38:46.51 | 4:21.14 | 174501 | 194089
10 | 43:07.65 | 6:51.15 | 194090 | 224929
11 | 49:59.05 | 3:10.22 | 224930 | 239201
Track 1
Filename E:\NYAQ\Room_3x08\Cryo - 2010 - Hidden Aggression [2CD LE JWLCS, cat. PROCD023L] - DISC 1\01 - Cryo - Prelude - Waves of Sin.wav
Pre-gap length 0:00:02.00
Peak level 97.7 %
Track quality 100.0 %
Test CRC AE06F519
Copy CRC AE06F519
Accurately ripped (confidence 1) [6D83F027]
Copy OK
Track 2
Filename E:\NYAQ\Room_3x08\Cryo - 2010 - Hidden Aggression [2CD LE JWLCS, cat. PROCD023L] - DISC 1\02 - Cryo - I Tune In.wav
Peak level 99.5 %
Track quality 100.0 %
Test CRC 6245166C
Copy CRC 6245166C
Accurately ripped (confidence 1) [42979514]
Copy OK
Track 3
Filename E:\NYAQ\Room_3x08\Cryo - 2010 - Hidden Aggression [2CD LE JWLCS, cat. PROCD023L] - DISC 1\03 - Cryo - Weitergehen.wav
Peak level 97.7 %
Track quality 100.0 %
Test CRC 79BE919C
Copy CRC 79BE919C
Accurately ripped (confidence 1) [0C92F250]
Copy OK
Track 4
Filename E:\NYAQ\Room_3x08\Cryo - 2010 - Hidden Aggression [2CD LE JWLCS, cat. PROCD023L] - DISC 1\04 - Cryo - Substance.wav
Peak level 97.7 %
Track quality 100.0 %
Test CRC 3590E8A0
Copy CRC 3590E8A0
Accurately ripped (confidence 1) [6E45892C]
Copy OK
Track 5
Filename E:\NYAQ\Room_3x08\Cryo - 2010 - Hidden Aggression [2CD LE JWLCS, cat. PROCD023L] - DISC 1\05 - Cryo - Hit Me Once.wav
Peak level 97.7 %
Track quality 100.0 %
Test CRC 020D70B9
Copy CRC 020D70B9
Accurately ripped (confidence 1) [1CB35FE9]
Copy OK
Track 6
Filename E:\NYAQ\Room_3x08\Cryo - 2010 - Hidden Aggression [2CD LE JWLCS, cat. PROCD023L] - DISC 1\06 - Cryo - Counting Down Again.wav
Peak level 97.7 %
Track quality 100.0 %
Test CRC DCB44A55
Copy CRC DCB44A55
Accurately ripped (confidence 1) [9758C57E]
Copy OK
Track 7
Filename E:\NYAQ\Room_3x08\Cryo - 2010 - Hidden Aggression [2CD LE JWLCS, cat. PROCD023L] - DISC 1\07 - Cryo - Guantanamo Bay.wav
Peak level 97.7 %
Track quality 100.0 %
Test CRC 9A59F722
Copy CRC 9A59F722
Accurately ripped (confidence 1) [98DC9A6E]
Copy OK
Track 8
Filename E:\NYAQ\Room_3x08\Cryo - 2010 - Hidden Aggression [2CD LE JWLCS, cat. PROCD023L] - DISC 1\08 - Cryo - Contract Killer.wav
Peak level 98.2 %
Track quality 100.0 %
Test CRC B9B60E5B
Copy CRC B9B60E5B
Accurately ripped (confidence 1) [75BA461E]
Copy OK
Track 9
Filename E:\NYAQ\Room_3x08\Cryo - 2010 - Hidden Aggression [2CD LE JWLCS, cat. PROCD023L] - DISC 1\09 - Cryo - I Die Every Day.wav
Peak level 97.7 %
Track quality 100.0 %
Test CRC 7A47BCF5
Copy CRC 7A47BCF5
Accurately ripped (confidence 1) [4114F574]
Copy OK
Track 10
Filename E:\NYAQ\Room_3x08\Cryo - 2010 - Hidden Aggression [2CD LE JWLCS, cat. PROCD023L] - DISC 1\10 - Cryo - Forgotten.wav
Peak level 97.7 %
Track quality 100.0 %
Test CRC 61D0AF50
Copy CRC 61D0AF50
Accurately ripped (confidence 1) [BA99FC6A]
Copy OK
Track 11
Filename E:\NYAQ\Room_3x08\Cryo - 2010 - Hidden Aggression [2CD LE JWLCS, cat. PROCD023L] - DISC 1\11 - Cryo - Rewind.wav
Peak level 71.0 %
Track quality 99.9 %
Test CRC 8E89AE0A
Copy CRC 8E89AE0A
Track not present in AccurateRip database
Copy OK
10 track(s) accurately ripped
1 track(s) not present in the AccurateRip database
Some tracks could not be verified as accurate
No errors occurred
End of status report
Exact Audio Copy V0.99 prebeta 5 from 4. May 2009
EAC extraction logfile from 9. March 2010, 21:32
Cryo / Hidden Aggression [2CD JWLCS LE, cat. PROCD023L] - DISC 2
Used drive : TDK CDRW4800B Adapter: 3 ID: 1
Read mode : Secure
Utilize accurate stream : Yes
Defeat audio cache : Yes
Make use of C2 pointers : No
Read offset correction : 6
Overread into Lead-In and Lead-Out : No
Fill up missing offset samples with silence : Yes
Delete leading and trailing silent blocks : No
Null samples used in CRC calculations : Yes
Used interface : Installed external ASPI interface
Gap handling : Appended to previous track
Used output format : User Defined Encoder
Selected bitrate : 1024 kBit/s
Quality : High
Add ID3 tag : No
Command line compressor : E:\flac.exe
Additional command line options : -V -8 -T "artist=%a" -T "title=%t" -T "album=%g" -T "date=%y" -T "tracknumber=%n" -T "genre=%m" -T "comment=Lbl:Progress Productions C:PROCD023L BC:7393210326095" %s
TOC of the extracted CD
Track | Start | Length | Start sector | End sector
---------------------------------------------------------
1 | 0:00.00 | 5:28.24 | 0 | 24623
2 | 5:28.24 | 3:52.44 | 24624 | 42067
3 | 9:20.68 | 5:19.59 | 42068 | 66051
4 | 14:40.52 | 4:34.63 | 66052 | 86664
5 | 19:15.40 | 5:27.46 | 86665 | 111235
6 | 24:43.11 | 3:53.30 | 111236 | 128740
Track 1
Filename E:\NYAQ\Room_3x08\Cryo - 2010 - Hidden Aggression [2CD JWLCS LE, cat. PROCD023L] - DISC 2\01 - Cryo - Guantanamo Bay - Terrorist Mix.wav
Pre-gap length 0:00:02.00
Peak level 97.7 %
Track quality 100.0 %
Test CRC A538318C
Copy CRC A538318C
Track not present in AccurateRip database
Copy OK
Track 2
Filename E:\NYAQ\Room_3x08\Cryo - 2010 - Hidden Aggression [2CD JWLCS LE, cat. PROCD023L] - DISC 2\02 - Cryo - World Of Fools.wav
Pre-gap length 0:00:02.00
Peak level 97.7 %
Track quality 100.0 %
Test CRC BE2FA062
Copy CRC BE2FA062
Track not present in AccurateRip database
Copy OK
Track 3
Filename E:\NYAQ\Room_3x08\Cryo - 2010 - Hidden Aggression [2CD JWLCS LE, cat. PROCD023L] - DISC 2\03 - Cryo - I tune In - Project-X Remix.wav
Pre-gap length 0:00:02.00
Peak level 97.7 %
Track quality 99.9 %
Test CRC 8915286B
Copy CRC 8915286B
Track not present in AccurateRip database
Copy OK
Track 4
Filename E:\NYAQ\Room_3x08\Cryo - 2010 - Hidden Aggression [2CD JWLCS LE, cat. PROCD023L] - DISC 2\04 - Cryo - Insane.wav
Pre-gap length 0:00:02.00
Peak level 96.4 %
Track quality 100.0 %
Test CRC A348712D
Copy CRC A348712D
Track not present in AccurateRip database
Copy OK
Track 5
Filename E:\NYAQ\Room_3x08\Cryo - 2010 - Hidden Aggression [2CD JWLCS LE, cat. PROCD023L] - DISC 2\05 - Cryo - Counting Down Again - Mr Jones Machine Remix.wav
Pre-gap length 0:00:02.00
Peak level 97.7 %
Track quality 100.0 %
Test CRC 7BB500D9
Copy CRC 7BB500D9
Track not present in AccurateRip database
Copy OK
Track 6
Filename E:\NYAQ\Room_3x08\Cryo - 2010 - Hidden Aggression [2CD JWLCS LE, cat. PROCD023L] - DISC 2\06 - Cryo - Hit Me Once - 1995 Live Version.wav
Pre-gap length 0:00:02.00
Peak level 96.4 %
Track quality 100.0 %
Test CRC 3D23225D
Copy CRC 3D23225D
Track not present in AccurateRip database
Copy OK
None of the tracks are present in the AccurateRip database
No errors occurred
End of status report


Не забывайте комментировать, говорить "спасибо" и покупать лицензионные диски!
Правила, инструкции, FAQ!!!
Торрент  Добавлен [26 июн 2020, 17:17] Скачать торрент Магнет ссылка
Скачать торрент
[ Размер 20.02 КБ / Просмотров 9 ]

Статус
Проверен 
 
Размер  1.44 ГБ
Приватный: Нет (DHT включён)
.torrent скачан  0
 


     Отправить личное сообщение
   
Страница 1 из 1
Показать сообщения за:  Поле сортировки  
Начать новую тему Ответить на тему


Сейчас этот форум просматривают: нет зарегистрированных пользователей и гости: 0


Вы не можете начинать темы
Вы не можете отвечать на сообщения
Вы не можете редактировать свои сообщения
Вы не можете удалять свои сообщения
Вы не можете добавлять вложения

Перейти:  
cron