Начать новую тему Ответить на тему
Статистика раздачи
Размер: 766.52 МБ | Добавлен: 26 июн 2020, 17:52 | Скачали: 0
Сидеров: 0  [0 байт/сек]    Личеров: 0  [0 байт/сек]
Пред. тема | След. тема 

Автор
Сообщение

СообщениеДобавлено: 26 июн 2020, 17:52 

Ответить с цитатой 

Combichrist - Everybody Hates You [double CD]
Жанр: EBM
Год выпуска диска: 2005
Производитель диска: (Out Of Line, Germany)
Аудио кодек: FLAC
Тип рипа: image+.cue
Битрейт аудио: lossless
Продолжительность Disc1: 1:07:58.60;
Продолжительность Disc2: 56:46.00
Трэклист:
Disc1
01. This S*it Will Fcuk You Up [4:46]
02. Enjoy The Abuse [5:14]
03. Today I Woke To The Rain Of Blood [5:46]
04. I'm Happy Anyway [5:11]
05. Blut Royale [5:34]
06. Who's Your Daddy, Snakegirl? [6:23]
07. Feed Your Anger [4:50]
08. God Bless [4:28]
09. Happy Fcuking Birthday [4:48]
10. This Is My Rifle [4:58]
11. Like To Thank My Buddies [6:19]
12. Lying Sack Of S*it [5:02]
13. Without Emotions [4:41]
Disc2
1. The Undertaker [4:50]
2. Red Signal [5:36]
3. Wreckage [5:54]
4. Rubber Toy [5:28]
5. Below [7:22]
6. Fever [4:49]
7. Beneath Every Depth [7:59]
8. The Corps Under My Bed [7:02]
9. Long Gone [7:44]
Источник: Физичесий носитель
Код:
Exact Audio Copy V0.99 prebeta 5 from 4. May 2009
Отчёт EAC об извлечении, выполненном 7. марта 2010, 15:13
Combichrist / Everybody Hates You
Дисковод: Optiarc DVD RW AD-7173A   Adapter: 0  ID: 0
Режим чтения                 : Достоверность
Использование точного потока : Да
Отключение кэша аудио        : Да
Использование указателей C2  : Нет
Коррекция смещения при чтении                     : 48
Способность читать области Lead-in и Lead-out     : Нет
Заполнение пропущенных сэмплов тишиной            : Да
Удаление блоков с тишиной в начале и конце        : Нет
При вычислениях CRC использовались нулевые сэмплы : Да
Интерфейс                                         : Установленный внешний ASPI-интерфейс
Выходной формат          : Пользовательский кодировщик
Выбранный битрейт        : 1024 kBit/s
Качество                 : Высокий
Добавление ID3-тэга      : Нет
Утилита сжатия           : C:\Program Files\Exact Audio Copy\Flac\flac.exe
Дополнительные параметры : -6 -V -T "ARTIST=%a" -T "TITLE=%t" -T "ALBUM=%g" -T "DATE=%y" -T "TRACKNUMBER=%n" -T "GENRE=%m" -T "COMMENT=%e" %s -o %d
TOC извлечённого CD
     Трек |   Старт  | Длительность | Начальный сектор | Конечный сектор
    ---------------------------------------------------------------------
       1  |  0:00.00 |    4:45.50   |           0      |      21424
       2  |  4:45.50 |    5:14.01   |       21425      |      44975
       3  |  9:59.51 |    5:45.54   |       44976      |      70904
       4  | 15:45.30 |    5:11.01   |       70905      |      94230
       5  | 20:56.31 |    5:33.62   |       94231      |     119267
       6  | 26:30.18 |    6:23.30   |      119268      |     148022
       7  | 32:53.48 |    4:49.74   |      148023      |     169771
       8  | 37:43.47 |    4:28.24   |      169772      |     189895
       9  | 42:11.71 |    4:47.54   |      189896      |     211474
      10  | 46:59.50 |    4:58.16   |      211475      |     233840
      11  | 51:57.66 |    6:18.61   |      233841      |     262251
      12  | 58:16.52 |    5:01.38   |      262252      |     284864
      13  | 63:18.15 |    4:40.45   |      284865      |     305909
Характеристики диапазона извлечения и сообщения об ошибках
Выбранный диапазон
     Имя файла H:\СКАЧКА\FLAC\1 TORRENT\Combichrist - Everybody Hates You.wav
     Пиковый уровень 100.0 %
     Качество диапазона 99.9 %
     CRC теста 09E9E516
     CRC копии 09E9E516
     Копирование... OK
Ошибок не произошло
AccurateRip: сводка
Трек  1  точное извлечение (доверие 6)  [6F511724]
Трек  2  точное извлечение (доверие 6)  [B949254D]
Трек  3  точное извлечение (доверие 6)  [E6104FDD]
Трек  4  точное извлечение (доверие 6)  [540E99CA]
Трек  5  точное извлечение (доверие 6)  [A33B3BC8]
Трек  6  точное извлечение (доверие 6)  [3E5BACDC]
Трек  7  точное извлечение (доверие 6)  [CF1B77C3]
Трек  8  точное извлечение (доверие 5)  [3162B223]
Трек  9  точное извлечение (доверие 5)  [CC8DE34F]
Трек 10  точное извлечение (доверие 5)  [247D1344]
Трек 11  точное извлечение (доверие 5)  [11A31DAC]
Трек 12  точное извлечение (доверие 5)  [9826B80F]
Трек 13  точное извлечение (доверие 5)  [8E5A9D01]
Все треки извлечены точно
Конец отчёта
Код:
Exact Audio Copy V0.99 prebeta 5 from 4. May 2009
Отчёт EAC об извлечении, выполненном 7. марта 2010, 19:54
Combichrist / Everybody Hates You
Дисковод: Optiarc DVD RW AD-7173A   Adapter: 0  ID: 0
Режим чтения                 : Достоверность
Использование точного потока : Да
Отключение кэша аудио        : Да
Использование указателей C2  : Нет
Коррекция смещения при чтении                     : 48
Способность читать области Lead-in и Lead-out     : Нет
Заполнение пропущенных сэмплов тишиной            : Да
Удаление блоков с тишиной в начале и конце        : Нет
При вычислениях CRC использовались нулевые сэмплы : Да
Интерфейс                                         : Установленный внешний ASPI-интерфейс
Выходной формат          : Пользовательский кодировщик
Выбранный битрейт        : 1024 kBit/s
Качество                 : Высокий
Добавление ID3-тэга      : Нет
Утилита сжатия           : C:\Program Files\Exact Audio Copy\Flac\flac.exe
Дополнительные параметры : -6 -V -T "ARTIST=%a" -T "TITLE=%t" -T "ALBUM=%g" -T "DATE=%y" -T "TRACKNUMBER=%n" -T "GENRE=%m" -T "COMMENT=%e" %s -o %d
TOC извлечённого CD
     Трек |   Старт  | Длительность | Начальный сектор | Конечный сектор
    ---------------------------------------------------------------------
       1  |  0:00.00 |    4:49.74   |           0      |      21748
       2  |  4:49.74 |    5:36.10   |       21749      |      46958
       3  | 10:26.09 |    5:54.00   |       46959      |      73508
       4  | 16:20.09 |    5:28.10   |       73509      |      98118
       5  | 21:48.19 |    7:22.30   |       98119      |     131298
       6  | 29:10.49 |    4:49.35   |      131299      |     153008
       7  | 34:00.09 |    7:59.34   |      153009      |     188967
       8  | 41:59.43 |    7:01.65   |      188968      |     220607
       9  | 49:01.33 |    7:44.27   |      220608      |     255434
Характеристики диапазона извлечения и сообщения об ошибках
Выбранный диапазон
     Имя файла H:\СКАЧКА\FLAC\1 TORRENT\Combichrist - Everybody Hates You.wav
     Пиковый уровень 100.0 %
     Качество диапазона 99.9 %
     CRC теста 4A37BCC6
     CRC копии 4A37BCC6
     Копирование... OK
Ошибок не произошло
AccurateRip: сводка
Трек  1  точное извлечение (доверие 5)  [7ED9EA1D]
Трек  2  точное извлечение (доверие 5)  [C4D589A4]
Трек  3  точное извлечение (доверие 5)  [9E76FFCF]
Трек  4  точное извлечение (доверие 5)  [368B9C4E]
Трек  5  точное извлечение (доверие 5)  [8939048E]
Трек  6  точное извлечение (доверие 5)  [3D23A311]
Трек  7  точное извлечение (доверие 5)  [330A7BAC]
Трек  8  точное извлечение (доверие 5)  [0B36055B]
Трек  9  точное извлечение (доверие 4)  [C2AEE957]
Все треки извлечены точно
Конец отчёта
Хочешь скачать, но не можешь из-за отсутствия сидов - пиши в личку!
Правила, инструкции, FAQ!!!
Торрент  Добавлен [26 июн 2020, 17:52] Скачать торрент Магнет ссылка
Скачать торрент
[ Размер 16.13 КБ / Просмотров 13 ]

Статус
Проверен 
 
Размер  766.52 МБ
Приватный: Нет (DHT включён)
.torrent скачан  0
 


     Отправить личное сообщение
   
Страница 1 из 1
Показать сообщения за:  Поле сортировки  
Начать новую тему Ответить на тему


Сейчас этот форум просматривают: нет зарегистрированных пользователей и гости: 0


Вы не можете начинать темы
Вы не можете отвечать на сообщения
Вы не можете редактировать свои сообщения
Вы не можете удалять свои сообщения
Вы не можете добавлять вложения

Перейти:  
cron