Начать новую тему Ответить на тему
Статистика раздачи
Размер: 344.76 МБ | Добавлен: 26 июн 2020, 20:16 | Скачали: 0
Сидеров: 0  [0 байт/сек]    Личеров: 0  [0 байт/сек]
Пред. тема | След. тема 

Автор
Сообщение

СообщениеДобавлено: 26 июн 2020, 20:16 

Ответить с цитатой 

Brigade Werther / Killbeat
Жанр: EBM
Страна-производитель диска: Germany
Год издания диска: 2012
Издатель (лейбл): Infacted Recordings
Номер по каталогу: FACT 3196
Страна: Germany
Аудиокодек: FLAC (*.flac)
Тип рипа: image+.cue
Битрейт аудио: lossless
Продолжительность: 0:41:39.35
Источник (релизер): CD из личной коллекции.
Наличие сканов в содержимом раздачи: да
Треклист:
01. Killbeat 6:13
02. Screenland Retake 4:12
03. 2 Sonnen Brennen 2:57
04. Aggression Camp 5:13
05. Technologie 3:37
06. Atlantic Scanner (Demo Version) 5:14
07. Move Me 1000 Miles 5:07
08. Antitrust 5:15
09. Thinking 3:36
Discogs
Код:
Exact Audio Copy V1.0 beta 3 from 29. August 2011
Отчёт EAC об извлечении, выполненном 15. февраля 2012, 10:13
Brigade Werther / Killbeat
Дисковод: PIONEER DVD-RW  DVR-XD10   Adapter: 1  ID: 0
Режим чтения                 : Достоверность
Использование точного потока : Да
Отключение кэша аудио        : Да
Использование указателей C2  : Нет
Коррекция смещения при чтении                     : 96
Способность читать области Lead-in и Lead-out     : Нет
Заполнение пропущенных сэмплов тишиной            : Да
Удаление блоков с тишиной в начале и конце        : Нет
При вычислениях CRC использовались нулевые сэмплы : Да
Интерфейс                                         : Встроенный Win32-интерфейс для Win NT/2000
Выходной формат          : Пользовательский кодировщик
Выбранный битрейт        : 1024 kBit/s
Качество                 : Высокий
Добавление ID3-тега      : Нет
Утилита сжатия           : C:\Program Files\Exact Audio Copy\FLAC\FLAC.EXE
Дополнительные параметры : -6 -V -T "ARTIST=%artist%" -T "TITLE=%title%" -T "ALBUM=%albumtitle%" -T "DATE=%year%" -T "TRACKNUMBER=%tracknr%" -T "GENRE=%genre%" -T "COMMENT=%comment%" -T "BAND=%albuminterpret%" -T "ALBUMARTIST=%albuminterpret%" -T "COMPOSER=%composer%" %haslyrics%--tag-from-file=LYRICS="%lyricsfile%"%haslyrics% -T "DISCNUMBER=%cdnumber%" -T "TOTALDISCS=%totalcds%" -T "TOTALTRACKS=%numtracks%" %hascover%--picture="%coverfile%"%hascover% %source% -o %dest%
TOC извлечённого CD
     Трек |   Старт  | Длительность | Начальный сектор | Конечный сектор
    ---------------------------------------------------------------------
       1  |  0:00.00 |    6:15.11   |           0      |      28135
       2  |  6:15.11 |    4:14.01   |       28136      |      47186
       3  | 10:29.12 |    2:59.20   |       47187      |      60631
       4  | 13:28.32 |    5:15.27   |       60632      |      84283
       5  | 18:43.59 |    3:38.53   |       84284      |     100686
       6  | 22:22.37 |    5:15.40   |      100687      |     124351
       7  | 27:38.02 |    5:08.29   |      124352      |     147480
       8  | 32:46.31 |    5:16.60   |      147481      |     171240
       9  | 38:03.16 |    3:36.19   |      171241      |     187459
Характеристики диапазона извлечения и сообщения об ошибках
Выбранный диапазон
     Имя файла C:\Users\Алексей\Desktop\iPOD\Brigade Werther - Killbeat.wav
     Пиковый уровень 100.0 %
     Скорость извлечения 3.7 X
     Качество диапазона 100.0 %
     CRC теста 244216EF
     CRC копии 244216EF
     Копирование... OK
Ошибок не произошло
AccurateRip: сводка
Трек  1  отсутствует в базе данных
Трек  2  отсутствует в базе данных
Трек  3  отсутствует в базе данных
Трек  4  отсутствует в базе данных
Трек  5  отсутствует в базе данных
Трек  6  отсутствует в базе данных
Трек  7  отсутствует в базе данных
Трек  8  отсутствует в базе данных
Трек  9  отсутствует в базе данных
Ни одного трека нет в базе AccurateRip
Конец отчёта
==== Контрольная сумма отчёта E7ACFA0B914806DA74F9D6D4B67DD1D9ABF416555DF0372113213904FC50BA74 ====
Код:
REM GENRE EBM
REM DATE 2012
REM DISCID 7109C309
REM COMMENT "ExactAudioCopy v1.0b3"
PERFORMER "Brigade Werther"
TITLE "Killbeat"
FILE "Brigade Werther - Killbeat.flac" WAVE
  TRACK 01 AUDIO
    TITLE "Killbeat"
    PERFORMER "Brigade Werther"
    INDEX 01 00:00:00
  TRACK 02 AUDIO
    TITLE "Screenland Retake"
    PERFORMER "Brigade Werther"
    INDEX 00 06:13:12
    INDEX 01 06:15:11
  TRACK 03 AUDIO
    TITLE "2 Sonnen Brennen"
    PERFORMER "Brigade Werther"
    INDEX 00 10:27:13
    INDEX 01 10:29:12
  TRACK 04 AUDIO
    TITLE "Aggression Camp"
    PERFORMER "Brigade Werther"
    INDEX 00 13:26:33
    INDEX 01 13:28:32
  TRACK 05 AUDIO
    TITLE "Technologie"
    PERFORMER "Brigade Werther"
    INDEX 00 18:41:60
    INDEX 01 18:43:59
  TRACK 06 AUDIO
    TITLE "Atlantic Scanner (Demo Version)"
    PERFORMER "Brigade Werther"
    INDEX 00 22:20:38
    INDEX 01 22:22:37
  TRACK 07 AUDIO
    TITLE "Move Me 1000 Miles"
    PERFORMER "Brigade Werther"
    INDEX 00 27:36:03
    INDEX 01 27:38:02
  TRACK 08 AUDIO
    TITLE "Antitrust"
    PERFORMER "Brigade Werther"
    INDEX 00 32:44:32
    INDEX 01 32:46:31
  TRACK 09 AUDIO
    TITLE "Thinking"
    PERFORMER "Brigade Werther"
    INDEX 00 38:01:17
    INDEX 01 38:03:16
Код:
[url=https://fastpic.ru/view/35/2012/0315/0c2637e4f3ee00c3d76f652d4a293c3d.jpg.html][img]http://i35.fastpic.ru/thumb/2012/0315/3d/0c2637e4f3ee00c3d76f652d4a293c3d.jpeg[/img][/url][url=https://fastpic.ru/view/27/2012/0315/6721feb3c0deda5ede79bb31984e6beb.jpg.html][img]http://i27.fastpic.ru/thumb/2012/0315/eb/6721feb3c0deda5ede79bb31984e6beb.jpeg[/img][/url][url=https://fastpic.ru/view/29/2012/0315/5daecf7014c9e81a4fec12311f9e00eb.jpg.html][img]http://i29.fastpic.ru/thumb/2012/0315/eb/5daecf7014c9e81a4fec12311f9e00eb.jpeg[/img][/url][url=https://fastpic.ru/view/35/2012/0315/ae19a248923ed4eb0ac91655c5e76905.jpg.html][img]http://i35.fastpic.ru/thumb/2012/0315/05/ae19a248923ed4eb0ac91655c5e76905.jpeg[/img][/url]
Правила, инструкции, FAQ!!!
Торрент  Добавлен [26 июн 2020, 20:16] Скачать торрент Магнет ссылка
Скачать торрент
[ Размер 14.62 КБ / Просмотров 13 ]

Статус
Проверен 
 
Размер  344.76 МБ
Приватный: Нет (DHT включён)
.torrent скачан  0
 


     Отправить личное сообщение
   
Страница 1 из 1
Показать сообщения за:  Поле сортировки  
Начать новую тему Ответить на тему


Сейчас этот форум просматривают: нет зарегистрированных пользователей и гости: 0


Вы не можете начинать темы
Вы не можете отвечать на сообщения
Вы не можете редактировать свои сообщения
Вы не можете удалять свои сообщения
Вы не можете добавлять вложения

Перейти:  
cron