Начать новую тему Ответить на тему
Статистика раздачи
Размер: 353.34 МБ | Добавлен: 26 июн 2020, 16:55 | Скачали: 0
Сидеров: 0  [0 байт/сек]    Личеров: 0  [0 байт/сек]
Пред. тема | След. тема 

Автор
Сообщение

СообщениеДобавлено: 26 июн 2020, 16:55 

Ответить с цитатой 

Brain Sektor - Control


Жанр: EBM
Носитель: CD
Год издания: 2013
Издатель (лейбл): Digital Density Records
Номер по каталогу: DDR 004
Аудиокодек: FLAC (*.flac)
Тип рипа: image .cue
Битрейт аудио: lossless
Продолжительность: 00:47:29
Источник (релизер): termoflex
Наличие сканов: да
Треклист:
01. Stress State [00:04:56]
02. Dark Side Of Brain [00:03:46]
03. Bad Spirit [00:04:12]
04. Cerebral Engine Start [00:04:20]
05. Cyber Wiring Error [00:03:22]
06. Human Machine Complexity [00:03:44]
07. Hell Inside [00:05:07]
08. Main Sektor [00:03:46]
09. World Of Fire [00:04:58]
10. Lost Identity [00:04:46]
11. Mental Test [00:04:08]

Код:
Exact Audio Copy V1.0 beta 4 from 7. December 2014
Отчёт EAC об извлечении, выполненном 24. февраля 2015, 13:38
Brain Sektor / Control
Дисковод: MATSHITADVD-RAM UJ8E2 S   Adapter: 1  ID: 0
Режим чтения                 : Достоверность
Использование точного потока : Да
Отключение кэша аудио        : Да
Использование указателей C2  : Нет
Коррекция смещения при чтении                     : 103
Способность читать области Lead-in и Lead-out     : Нет
Заполнение пропущенных сэмплов тишиной            : Да
Удаление блоков с тишиной в начале и конце        : Нет
При вычислениях CRC использовались нулевые сэмплы : Да
Интерфейс                                         : Встроенный Win32-интерфейс для Win NT/2000
Выходной формат          : Пользовательский кодировщик
Выбранный битрейт        : 1024 kBit/s
Качество                 : Высокий
Добавление ID3-тега      : Нет
Утилита сжатия           : C:\Program Files (x86)\Exact Audio Copy\Flac\flac.exe
Дополнительные параметры : -V -8 -T "Comment=ripped by termoflex [special for  СПАМ -T "Date=%year%" -T "Genre=%genre%" %source%
TOC извлечённого CD
     Трек |   Старт  | Длительность | Начальный сектор | Конечный сектор
    ---------------------------------------------------------------------
       1  |  0:00.00 |    4:58.17   |           0      |      22366
       2  |  4:58.17 |    3:47.63   |       22367      |      39454
       3  |  8:46.05 |    4:14.00   |       39455      |      58504
       4  | 13:00.05 |    4:22.00   |       58505      |      78154
       5  | 17:22.05 |    3:24.20   |       78155      |      93474
       6  | 20:46.25 |    3:46.40   |       93475      |     110464
       7  | 24:32.65 |    5:09.52   |      110465      |     133691
       8  | 29:42.42 |    3:48.12   |      133692      |     150803
       9  | 33:30.54 |    4:59.62   |      150804      |     173290
      10  | 38:30.41 |    4:48.00   |      173291      |     194890
      11  | 43:18.41 |    4:10.35   |      194891      |     213675
Характеристики диапазона извлечения и сообщения об ошибках
Выбранный диапазон
     Имя файла C:\Users\User\Music\Brain Sektor - Control.wav
     Пиковый уровень 99.9 %
     Скорость извлечения 4.0 X
     Качество диапазона 100.0 %
     CRC теста 4E856A2A
     CRC копии 4E856A2A
     Копирование... OK
Ошибок не произошло
AccurateRip: сводка
Трек  1  отсутствует в базе данных
Трек  2  отсутствует в базе данных
Трек  3  отсутствует в базе данных
Трек  4  отсутствует в базе данных
Трек  5  отсутствует в базе данных
Трек  6  отсутствует в базе данных
Трек  7  отсутствует в базе данных
Трек  8  отсутствует в базе данных
Трек  9  отсутствует в базе данных
Трек 10  отсутствует в базе данных
Трек 11  отсутствует в базе данных
Ни одного трека нет в базе AccurateRip
Конец отчёта
---- CUETools DB Plugin V2.1.4
[CTDB TOCID: RT5FvznbpBidAzP0M_3WdumC8Cw-] found
Submit result: already submitted
Track | CTDB Status
  1   | (1/1) Accurately ripped
  2   | (1/1) Accurately ripped
  3   | (1/1) Accurately ripped
  4   | (1/1) Accurately ripped
  5   | (1/1) Accurately ripped
  6   | (1/1) Accurately ripped
  7   | (1/1) Accurately ripped
  8   | (1/1) Accurately ripped
  9   | (1/1) Accurately ripped
 10   | (1/1) Accurately ripped
 11   | (1/1) Accurately ripped
==== Контрольная сумма отчёта 93FB5B6BED9C94710E6584B943DC84D5CA8E3B25915CAC4DB00A1B02448FE87B ====
Код:
REM GENRE EBM
REM DATE 2013
REM DISCID 760B210B
REM COMMENT "ExactAudioCopy v1.0b4"
PERFORMER "Brain Sektor"
TITLE "Control"
FILE "Brain Sektor - Control.flac" WAVE
  TRACK 01 AUDIO
    TITLE "Stress State"
    PERFORMER "Brain Sektor"
    INDEX 01 00:00:00
  TRACK 02 AUDIO
    TITLE "Dark Side Of Brain"
    PERFORMER "Brain Sektor"
    INDEX 00 04:56:35
    INDEX 01 04:58:17
  TRACK 03 AUDIO
    TITLE "Bad Spirit"
    PERFORMER "Brain Sektor"
    INDEX 00 08:44:23
    INDEX 01 08:46:05
  TRACK 04 AUDIO
    TITLE "Cerebral Engine Start"
    PERFORMER "Brain Sektor"
    INDEX 00 12:58:23
    INDEX 01 13:00:05
  TRACK 05 AUDIO
    TITLE "Cyber Wiring Error"
    PERFORMER "Brain Sektor"
    INDEX 00 17:20:23
    INDEX 01 17:22:05
  TRACK 06 AUDIO
    TITLE "Human Machine Complexity"
    PERFORMER "Brain Sektor"
    INDEX 00 20:44:43
    INDEX 01 20:46:25
  TRACK 07 AUDIO
    TITLE "Hell Inside"
    PERFORMER "Brain Sektor"
    INDEX 00 24:31:08
    INDEX 01 24:32:65
  TRACK 08 AUDIO
    TITLE "Main Sektor"
    PERFORMER "Brain Sektor"
    INDEX 00 29:40:60
    INDEX 01 29:42:42
  TRACK 09 AUDIO
    TITLE "World Of Fire"
    PERFORMER "Brain Sektor"
    INDEX 00 33:28:72
    INDEX 01 33:30:54
  TRACK 10 AUDIO
    TITLE "Lost Identity"
    PERFORMER "Brain Sektor"
    INDEX 00 38:28:59
    INDEX 01 38:30:41
  TRACK 11 AUDIO
    TITLE "Mental Test"
    PERFORMER "Brain Sektor"
    INDEX 00 43:16:59
    INDEX 01 43:18:41
Код:
-----------------------
DON'T MODIFY THIS FILE
-----------------------
PERFORMER: auCDtect Task Manager, ver. 1.5.1RC4 build 1.5.1.5
Copyright (c) 2008-2010 y-soft. All rights reserved
[url=http://y-soft.org]http://y-soft.org[/url]
ANALYZER: auCDtect: CD records authenticity detector, version 0.8.2
Copyright (c) 2004 Oleg Berngardt. All rights reserved.
Copyright (c) 2004 Alexander Djourik. All rights reserved.
FILE: Brain Sektor - Control.flac
  Size: 349032181 Hash: E7F8F5A5E95A718FBBCA70327CF3139E Accuracy: -m0
  Conclusion: CDDA 100%
  Signature: 708EE3156F25EC2B0023E2B35485CB5CA0B1ED1C
Правила, инструкции, FAQ!!!
Торрент  Добавлен [26 июн 2020, 16:55] Скачать торрент Магнет ссылка
Скачать торрент
[ Размер 14.77 КБ / Просмотров 6 ]

Статус
Проверен 
 
Размер  353.34 МБ
Приватный: Нет (DHT включён)
.torrent скачан  0
 


     Отправить личное сообщение
   
Страница 1 из 1
Показать сообщения за:  Поле сортировки  
Начать новую тему Ответить на тему


Сейчас этот форум просматривают: нет зарегистрированных пользователей и гости: 0


Вы не можете начинать темы
Вы не можете отвечать на сообщения
Вы не можете редактировать свои сообщения
Вы не можете удалять свои сообщения
Вы не можете добавлять вложения

Перейти:  
cron