Начать новую тему Ответить на тему
Статистика раздачи
Размер: 324.99 МБ | Добавлен: 26 июн 2020, 20:15 | Скачали: 0
Сидеров: 0  [0 байт/сек]    Личеров: 0  [0 байт/сек]
Пред. тема | След. тема 

Автор
Сообщение

СообщениеДобавлено: 26 июн 2020, 20:15 

Ответить с цитатой 

T.W.A.T. / Blood, Sweat & Teargas
Жанр: EBM
Страна-производитель диска: Germany
Год издания: 2011
Издатель (лейбл): Machineries Of Joy
Номер по каталогу: KUT 002
Формат: CD, Album
Страна: Sweden
Аудиокодек: FLAC (*.flac)
Тип рипа: image+.cue
Битрейт аудио: lossless
Продолжительность: 0:41:02.40
Источник (релизер): CD из личной коллекции.
Наличие сканов в содержимом раздачи: да
Треклист:
01. Func. 1:17
02. Too Rude For Radio (Punked Up) 2:13
03. Lazy Fuckers 3:06
04. Conformity 2:19
05. The Barricades 2:12
06. Choke 2:28
07. Run The Cameras 3:39
08. Battleground 2:52
09. My Skin 3:25
10. Working Class 2:41
11. Born And Raised 3:03
12. Bow And Obey 2:08
13. Sverige 3:10
14. Off. 2:15
15. Sverige (Hasse Code 64 Remix) 4:14
Discogs
Код:
Exact Audio Copy V1.0 beta 3 from 29. August 2011
Отчёт EAC об извлечении, выполненном 29. июля 2012, 12:24
T.W.A.T. / Blood, Sweat & Teargas
Дисковод: PIONEER DVD-RW  DVR-XD10   Adapter: 1  ID: 0
Режим чтения                 : Достоверность
Использование точного потока : Да
Отключение кэша аудио        : Да
Использование указателей C2  : Нет
Коррекция смещения при чтении                     : 96
Способность читать области Lead-in и Lead-out     : Нет
Заполнение пропущенных сэмплов тишиной            : Да
Удаление блоков с тишиной в начале и конце        : Нет
При вычислениях CRC использовались нулевые сэмплы : Да
Интерфейс                                         : Встроенный Win32-интерфейс для Win NT/2000
Выходной формат          : Пользовательский кодировщик
Выбранный битрейт        : 1024 kBit/s
Качество                 : Высокий
Добавление ID3-тега      : Нет
Утилита сжатия           : C:\Program Files\Exact Audio Copy\FLAC\FLAC.EXE
Дополнительные параметры : -V -8 -T "Date=%year%" -T "Genre=%genre%" %source%
TOC извлечённого CD
     Трек |   Старт  | Длительность | Начальный сектор | Конечный сектор
    ---------------------------------------------------------------------
       1  |  0:00.00 |    1:17.19   |           0      |       5793
       2  |  1:17.19 |    2:12.56   |        5794      |      15749
       3  |  3:30.00 |    3:05.39   |       15750      |      29663
       4  |  6:35.39 |    2:19.10   |       29664      |      40098
       5  |  8:54.49 |    2:12.11   |       40099      |      50009
       6  | 11:06.60 |    2:27.46   |       50010      |      61080
       7  | 13:34.31 |    3:39.37   |       61081      |      77542
       8  | 17:13.68 |    2:52.00   |       77543      |      90442
       9  | 20:05.68 |    3:24.56   |       90443      |     105798
      10  | 23:30.49 |    2:41.20   |      105799      |     117893
      11  | 26:11.69 |    3:03.00   |      117894      |     131618
      12  | 29:14.69 |    2:08.23   |      131619      |     141241
      13  | 31:23.17 |    3:10.13   |      141242      |     155504
      14  | 34:33.30 |    2:14.52   |      155505      |     165606
      15  | 36:48.07 |    4:14.33   |      165607      |     184689
Характеристики диапазона извлечения и сообщения об ошибках
Выбранный диапазон
     Имя файла C:\Users\Алексей\Desktop\iPOD\T.W.A.T. - Blood, Sweat & Teargas.wav
     Пиковый уровень 97.7 %
     Скорость извлечения 3.8 X
     Качество диапазона 100.0 %
     CRC теста EC7BF1C2
     CRC копии EC7BF1C2
     Копирование... OK
Ошибок не произошло
AccurateRip: сводка
Трек  1  : извлечено точно (доверие 1)  [C3C5738B]  (AR v2)
Трек  2  : извлечено точно (доверие 1)  [38BAD3EA]  (AR v2)
Трек  3  : извлечено точно (доверие 1)  [658ACF9D]  (AR v2)
Трек  4  : извлечено точно (доверие 1)  [FEEC659B]  (AR v2)
Трек  5  : извлечено точно (доверие 1)  [95034498]  (AR v2)
Трек  6  : извлечено точно (доверие 1)  [BA7F2A80]  (AR v2)
Трек  7  : извлечено точно (доверие 1)  [DA1D8461]  (AR v2)
Трек  8  : извлечено точно (доверие 1)  [14C419E1]  (AR v2)
Трек  9  : извлечено точно (доверие 1)  [E68C2686]  (AR v2)
Трек 10  : извлечено точно (доверие 1)  [F07AFC15]  (AR v2)
Трек 11  : извлечено точно (доверие 1)  [F436596E]  (AR v2)
Трек 12  : извлечено точно (доверие 1)  [2DC774FF]  (AR v2)
Трек 13  : извлечено точно (доверие 1)  [C87A7691]  (AR v2)
Трек 14  : извлечено точно (доверие 1)  [0C16C79C]  (AR v2)
Трек 15  : извлечено точно (доверие 1)  [BC9EE1AA]  (AR v2)
Все треки извлечены точно
Конец отчёта
==== Контрольная сумма отчёта FDBA34C8B056CD3F5C4041655766B4655556B16CEB1F964D2EBCB073FF42BCD8 ====
Код:
REM GENRE EBM
REM DATE 2011
REM DISCID C2099E0F
REM COMMENT "ExactAudioCopy v1.0b3"
PERFORMER "T.W.A.T."
TITLE "Blood, Sweat & Teargas"
FILE "T.W.A.T. - Blood, Sweat & Teargas.flac" WAVE
  TRACK 01 AUDIO
    TITLE "Func."
    PERFORMER "T.W.A.T."
    FLAGS DCP
    INDEX 01 00:00:00
  TRACK 02 AUDIO
    TITLE "Too Rude For Radio (Punked Up)"
    PERFORMER "T.W.A.T."
    FLAGS DCP
    INDEX 00 01:15:19
    INDEX 01 01:17:19
  TRACK 03 AUDIO
    TITLE "Lazy Fuckers"
    PERFORMER "T.W.A.T."
    FLAGS DCP
    INDEX 00 03:28:00
    INDEX 01 03:30:00
  TRACK 04 AUDIO
    TITLE "Conformity"
    PERFORMER "T.W.A.T."
    FLAGS DCP
    INDEX 00 06:33:39
    INDEX 01 06:35:39
  TRACK 05 AUDIO
    TITLE "The Barricades"
    PERFORMER "T.W.A.T."
    FLAGS DCP
    INDEX 00 08:52:49
    INDEX 01 08:54:49
  TRACK 06 AUDIO
    TITLE "Choke"
    PERFORMER "T.W.A.T."
    FLAGS DCP
    INDEX 00 11:04:60
    INDEX 01 11:06:60
  TRACK 07 AUDIO
    TITLE "Run The Cameras"
    PERFORMER "T.W.A.T."
    FLAGS DCP
    INDEX 00 13:32:31
    INDEX 01 13:34:31
  TRACK 08 AUDIO
    TITLE "Battleground"
    PERFORMER "T.W.A.T."
    FLAGS DCP
    INDEX 00 17:11:68
    INDEX 01 17:13:68
  TRACK 09 AUDIO
    TITLE "My Skin"
    PERFORMER "T.W.A.T."
    FLAGS DCP
    INDEX 00 20:03:68
    INDEX 01 20:05:68
  TRACK 10 AUDIO
    TITLE "Working Class"
    PERFORMER "T.W.A.T."
    FLAGS DCP
    INDEX 00 23:28:49
    INDEX 01 23:30:49
  TRACK 11 AUDIO
    TITLE "Born And Raised"
    PERFORMER "T.W.A.T."
    FLAGS DCP
    INDEX 00 26:09:69
    INDEX 01 26:11:69
  TRACK 12 AUDIO
    TITLE "Bow And Obey"
    PERFORMER "T.W.A.T."
    FLAGS DCP
    INDEX 00 29:12:69
    INDEX 01 29:14:69
  TRACK 13 AUDIO
    TITLE "Sverige"
    PERFORMER "T.W.A.T."
    FLAGS DCP
    INDEX 00 31:21:17
    INDEX 01 31:23:17
  TRACK 14 AUDIO
    TITLE "Off."
    PERFORMER "T.W.A.T."
    FLAGS DCP
    INDEX 00 34:31:30
    INDEX 01 34:33:30
  TRACK 15 AUDIO
    TITLE "Sverige (RMX by Hasse from Code 64)"
    PERFORMER "T.W.A.T."
    FLAGS DCP
    INDEX 00 36:46:07
    INDEX 01 36:48:07
Код:
[url=https://fastpic.ru/view/42/2012/0729/c0384abdad8815e864c6291057e7a5c0.jpg.html][img]http://i42.fastpic.ru/thumb/2012/0729/c0/c0384abdad8815e864c6291057e7a5c0.jpeg[/img][/url][url=https://fastpic.ru/view/40/2012/0729/982c4c3728366efc988829a993377db4.jpg.html][img]http://i40.fastpic.ru/thumb/2012/0729/b4/982c4c3728366efc988829a993377db4.jpeg[/img][/url][url=https://fastpic.ru/view/41/2012/0729/180c890431debeba383e3d0ecc0e12c1.jpg.html][img]http://i41.fastpic.ru/thumb/2012/0729/c1/180c890431debeba383e3d0ecc0e12c1.jpeg[/img][/url][url=https://fastpic.ru/view/43/2012/0729/9bdac8340d32873fe43ab20bdafe0442.jpg.html][img]http://i43.fastpic.ru/thumb/2012/0729/42/9bdac8340d32873fe43ab20bdafe0442.jpeg[/img][/url]
Правила, инструкции, FAQ!!!
Торрент  Добавлен [26 июн 2020, 20:15] Скачать торрент Магнет ссылка
Скачать торрент
[ Размер 14.01 КБ / Просмотров 12 ]

Статус
Проверен 
 
Размер  324.99 МБ
Приватный: Нет (DHT включён)
.torrent скачан  0
 


     Отправить личное сообщение
   
Страница 1 из 1
Показать сообщения за:  Поле сортировки  
Начать новую тему Ответить на тему


Сейчас этот форум просматривают: нет зарегистрированных пользователей и гости: 0


Вы не можете начинать темы
Вы не можете отвечать на сообщения
Вы не можете редактировать свои сообщения
Вы не можете удалять свои сообщения
Вы не можете добавлять вложения

Перейти:  
cron