Начать новую тему Ответить на тему
Статистика раздачи
Размер: 337.78 МБ | Добавлен: 26 июн 2020, 20:08 | Скачали: 0
Сидеров: 0  [0 байт/сек]    Личеров: 0  [0 байт/сек]
Пред. тема | След. тема 

Автор
Сообщение

СообщениеДобавлено: 26 июн 2020, 20:08 

Ответить с цитатой 

Blitzmaschine / Useless Pain EP
Жанр: EBM
Страна-производитель диска: Germany
Год издания: 2012
Издатель (лейбл): Danse Macabre
Номер по каталогу: None
Страна: Germany
Аудиокодек: FLAC (*.flac)
Тип рипа: image+.cue
Битрейт аудио: lossless
Продолжительность: 0:30:50.08
Источник (релизер): CD из личной коллекции.
Наличие сканов в содержимом раздачи: да
Треклист:
01. Useless Pain (7" Inch Single Mix) 3:55
02. Gotcha! (Green Bullet Mix) 3:40
03. Useless Pain (12" Inch Club Mix) 4:03
04. Blondes Madchen (Mesh Mix) 4:26
05. Was Hasst Du? (Kreign MG-42-Rmx) 5:54
06. Blondes Madchen (Hardwire Remix) 4:28
07. Vorwarts (Gedreht Remix) 4:23
08. Video Clip "Uleless Pain" 3:53
Discogs
Код:
Exact Audio Copy V1.0 beta 3 from 29. August 2011
Отчёт EAC об извлечении, выполненном 24. мая 2012, 12:27
Blitzmaschine / Useless Pain
Дисковод: PIONEER DVD-RW  DVR-XD10   Adapter: 1  ID: 0
Режим чтения                 : Достоверность
Использование точного потока : Да
Отключение кэша аудио        : Да
Использование указателей C2  : Нет
Коррекция смещения при чтении                     : 96
Способность читать области Lead-in и Lead-out     : Нет
Заполнение пропущенных сэмплов тишиной            : Да
Удаление блоков с тишиной в начале и конце        : Нет
При вычислениях CRC использовались нулевые сэмплы : Да
Интерфейс                                         : Встроенный Win32-интерфейс для Win NT/2000
Выходной формат          : Пользовательский кодировщик
Выбранный битрейт        : 1024 kBit/s
Качество                 : Высокий
Добавление ID3-тега      : Нет
Утилита сжатия           : C:\Program Files\Exact Audio Copy\FLAC\FLAC.EXE
Дополнительные параметры : -V -8 -T "Date=%year%" -T "Genre=%genre%" %source%
TOC извлечённого CD
     Трек |   Старт  | Длительность | Начальный сектор | Конечный сектор
    ---------------------------------------------------------------------
       1  |  0:00.00 |    3:55.15   |           0      |      17639
       2  |  3:55.15 |    3:39.57   |       17640      |      34121
       3  |  7:34.72 |    4:03.36   |       34122      |      52382
       4  | 11:38.33 |    4:26.27   |       52383      |      72359
       5  | 16:04.60 |    5:53.49   |       72360      |      98883
       6  | 21:58.34 |    4:28.22   |       98884      |     119005
       7  | 26:26.56 |    4:23.27   |      119006      |     138757
       8  | 33:22.08 |   12:04.68   |      150158      |     204525
Характеристики диапазона извлечения и сообщения об ошибках
Выбранный диапазон
     Имя файла C:\Users\Алексей\Desktop\iPOD\Blitzmaschine - Useless Pain.wav
     Пиковый уровень 97.7 %
     Скорость извлечения 3.8 X
     Качество диапазона 100.0 %
     CRC теста 3621FBC0
     CRC копии 3621FBC0
     Копирование... OK
Ошибок не произошло
AccurateRip: сводка
Трек  1  отсутствует в базе данных
Трек  2  отсутствует в базе данных
Трек  3  отсутствует в базе данных
Трек  4  отсутствует в базе данных
Трек  5  отсутствует в базе данных
Трек  6  отсутствует в базе данных
Трек  7  отсутствует в базе данных
Ни одного трека нет в базе AccurateRip
Конец отчёта
==== Контрольная сумма отчёта 7AFC0A3B702EBF6ACF8B001FA8FDC7D3F3A56D972480C6D87E9DF961FC1FBCEC ====
Код:
REM GENRE EBM
REM DATE 2012
REM DISCID 5B0AA708
REM COMMENT "ExactAudioCopy v1.0b3"
PERFORMER "Blitzmaschine"
TITLE "Useless Pain"
FILE "Blitzmaschine - Useless Pain.flac" WAVE
  TRACK 01 AUDIO
    TITLE "Useless Pain (7' Single Mix)"
    PERFORMER "Blitzmaschine"
    ISRC DEGQ81203268
    INDEX 01 00:00:00
  TRACK 02 AUDIO
    TITLE "Gotcha! (Green Bullet Mix)"
    PERFORMER "Blitzmaschine"
    ISRC DEGQ81203269
    INDEX 00 03:53:15
    INDEX 01 03:55:15
  TRACK 03 AUDIO
    TITLE "Useless Pain (12' Club Mix)"
    PERFORMER "Blitzmaschine"
    ISRC DEGQ81203270
    INDEX 00 07:32:72
    INDEX 01 07:34:72
  TRACK 04 AUDIO
    TITLE "Blondes Madchen (Mesh Mix)"
    PERFORMER "Blitzmaschine"
    ISRC DEGQ81203271
    INDEX 00 11:36:33
    INDEX 01 11:38:33
  TRACK 05 AUDIO
    TITLE "Was Hasst Du? (Kreign MG42-RMX)"
    PERFORMER "Blitzmaschine"
    ISRC DEGQ81203272
    INDEX 00 16:02:60
    INDEX 01 16:04:60
  TRACK 06 AUDIO
    TITLE "Blondes Madchen (Hardwire Remix)"
    PERFORMER "Blitzmaschine"
    ISRC DEGQ81203273
    INDEX 00 21:56:34
    INDEX 01 21:58:34
  TRACK 07 AUDIO
    TITLE "Vorwarts (Gedreht Remix)"
    PERFORMER "Blitzmaschine"
    ISRC DEGQ81203274
    INDEX 00 26:24:56
    INDEX 01 26:26:56
Код:
[url=https://fastpic.ru/view/38/2012/0524/2159313013020efcbf8de12a9dd0e5f2.jpg.html][img]http://i38.fastpic.ru/thumb/2012/0524/f2/2159313013020efcbf8de12a9dd0e5f2.jpeg[/img][/url][url=https://fastpic.ru/view/38/2012/0524/3faa09a4660486312b44cf5be061c2be.jpg.html][img]http://i38.fastpic.ru/thumb/2012/0524/be/3faa09a4660486312b44cf5be061c2be.jpeg[/img][/url][url=https://fastpic.ru/view/38/2012/0524/d72767044d252c84b6ea40de2f0119e4.jpg.html][img]http://i38.fastpic.ru/thumb/2012/0524/e4/d72767044d252c84b6ea40de2f0119e4.jpeg[/img][/url][url=https://fastpic.ru/view/38/2012/0524/ff3661933d15a04999ee7ada8018db63.jpg.html][img]http://i38.fastpic.ru/thumb/2012/0524/63/ff3661933d15a04999ee7ada8018db63.jpeg[/img][/url][url=https://fastpic.ru/view/37/2012/0524/dbfee1c492f11e5ddd11e3f24e3e95ff.jpg.html][img]http://i37.fastpic.ru/thumb/2012/0524/ff/dbfee1c492f11e5ddd11e3f24e3e95ff.jpeg[/img][/url]
Код:
Общее
Полное имя                       : C:\Users\Алексей\Desktop\iPOD\Blitzmaschine - Useless Pain EP [2012]\Useless Pain - Video Clip\Blitzmaschine - Useless Pain [Official Video].mp4
Формат                           : MPEG-4
Профиль формата                  : Base Media / Version 2
Идентификатор кодека             : mp42
Размер файла                     : 106 Мбайт
Продолжительность                : 3 м. 53 с.
Общий поток                      : 3814 Кбит/сек
Дата кодирования                 : UTC 2012-02-09 08:29:38
Дата пометки                     : UTC 2012-02-09 08:29:38
gsst                             : 0
gstd                             : 234405
gssd                             : B55B6FA09MH1328962200596480
gshh                             : o-o.preferred.hansenet-ham1.v18.lscache7.c.youtube.com
Видео
Идентификатор                    : 1
Формат                           : AVC
Формат/Информация                : Advanced Video Codec
Профиль формата                  : High@L4.0
Параметр CABAC формата           : Да
Параметр ReFrames формата        : 1 кадр
Идентификатор кодека             : avc1
Идентификатор кодека/Информация  : Advanced Video Coding
Продолжительность                : 3 м. 53 с.
Вид битрейта                     : Переменный
Битрейт                          : 3660 Кбит/сек
Максимальный битрейт             : 15,0 Мбит/сек
Ширина                           : 1920 пикс.
Высота                           : 1080 пикс.
Соотношение сторон               : 16:9
Режим частоты кадров             : Постоянный
Частота кадров                   : 25,000 кадр/сек
Цветовое пространство            : YUV
Подвыборка цветности             : 4:2:0
Битовая глубина                  : 8 бит
Тип развёртки                    : Прогрессивная
Бит/(Пиксели*Кадры)              : 0.071
Размер потока                    : 102 Мбайт (96%)
Дата пометки                     : UTC 2012-02-09 08:29:38
Аудио
Идентификатор                    : 2
Формат                           : AAC
Формат/Информация                : Advanced Audio Codec
Профиль формата                  : LC
Идентификатор кодека             : 40
Продолжительность                : 3 м. 53 с.
Вид битрейта                     : Переменный
Битрейт                          : 152 Кбит/сек
Максимальный битрейт             : 194 Кбит/сек
Канал(ы)                         : 2 канала(ов)
Расположение каналов             : Front: L R
Частота                          : 44,1 КГц
Метод сжатия                     : С потерями
Размер потока                    : 4,23 Мбайт (4%)
Заголовок                        : IsoMedia File Produced by Google, 5-11-2011
Дата кодирования                 : UTC 2012-02-09 08:29:38
Дата пометки                     : UTC 2012-02-09 08:29:38
Правила, инструкции, FAQ!!!
Торрент  Добавлен [26 июн 2020, 20:08] Скачать торрент Магнет ссылка
Скачать торрент
[ Размер 14.77 КБ / Просмотров 9 ]

Статус
Проверен 
 
Размер  337.78 МБ
Приватный: Нет (DHT включён)
.torrent скачан  0
 


     Отправить личное сообщение
   
Страница 1 из 1
Показать сообщения за:  Поле сортировки  
Начать новую тему Ответить на тему


Сейчас этот форум просматривают: нет зарегистрированных пользователей и гости: 0


Вы не можете начинать темы
Вы не можете отвечать на сообщения
Вы не можете редактировать свои сообщения
Вы не можете удалять свои сообщения
Вы не можете добавлять вложения

Перейти:  
cron