Начать новую тему Ответить на тему
Статистика раздачи
Размер: 431.36 МБ | Добавлен: 26 июн 2020, 17:09 | Скачали: 0
Сидеров: 0  [0 байт/сек]    Личеров: 0  [0 байт/сек]
Пред. тема | След. тема 

Автор
Сообщение

СообщениеДобавлено: 26 июн 2020, 17:09 

Ответить с цитатой 

Birmingham 6 - Mindhallucination
Жанр: EBM
Год выпуска диска: 1994
Производитель диска: Denmark
Аудио кодек: FLAC
Тип рипа: image+.cue
Битрейт аудио: lossless
Продолжительность: 00:56:39
Трэклист:
01 - Birmingham 6 [Original]
02 - Israel '94
03 - 6794700
04 - All Around the Watchtower
05 - Lovechild
06 - Mindhallucination
07 - This Girl '94
08 - Who Do You Love
09 - Contagious
10 - Radicals
Код:
Exact Audio Copy V0.99 prebeta 5 from 4. May 2009
Отчёт EAC об извлечении, выполненном 22. февраля 2010, 19:29
Birmingham 6 / Mindhallucination
Дисковод: Optiarc DVD RW AD-7201S   Adapter: 2  ID: 1
Режим чтения                 : Достоверность
Использование точного потока : Да
Отключение кэша аудио        : Да
Использование указателей C2  : Нет
Коррекция смещения при чтении                     : 48
Способность читать области Lead-in и Lead-out     : Нет
Заполнение пропущенных сэмплов тишиной            : Да
Удаление блоков с тишиной в начале и конце        : Нет
При вычислениях CRC использовались нулевые сэмплы : Да
Интерфейс                                         : Встроенный Win32-интерфейс для Win
NT/2000
Выходной формат : Внутренние WAV-операции
Формат сэмплов  : 44.100 Гц; 16 бит; стерео
TOC извлечённого CD
     Трек |   Старт  | Длительность | Начальный сектор | Конечный сектор
    ---------------------------------------------------------------------
       1  |  0:00.00 |    4:40.21   |           0      |      21020
       2  |  4:40.21 |    6:09.60   |       21021      |      48755
       3  | 10:50.06 |    4:52.37   |       48756      |      70692
       4  | 15:42.43 |    5:34.10   |       70693      |      95752
       5  | 21:16.53 |    4:34.47   |       95753      |     116349
       6  | 25:51.25 |    5:14.39   |      116350      |     139938
       7  | 31:05.64 |    7:40.63   |      139939      |     174501
       8  | 38:46.52 |    6:05.21   |      174502      |     201897
       9  | 44:51.73 |    5:26.16   |      201898      |     226363
      10  | 50:18.14 |    6:20.70   |      226364      |     254933
Характеристики диапазона извлечения и сообщения об ошибках
Выбранный диапазон
     Имя файла D:\Раздачи\Birmingham 6 - Mindhallucination\Birmingham 6 -
Mindhallucination.wav
     Пиковый уровень 100.0 %
     Качество диапазона 100.0 %
     CRC теста C20368CB
     CRC копии C20368CB
     Копирование... OK
Ошибок не произошло
AccurateRip: сводка
Трек  1  нет в базе данных
Трек  2  нет в базе данных
Трек  3  нет в базе данных
Трек  4  нет в базе данных
Трек  5  нет в базе данных
Трек  6  нет в базе данных
Трек  7  нет в базе данных
Трек  8  нет в базе данных
Трек  9  нет в базе данных
Трек 10  нет в базе данных
Ни одного трека нет в базе AccurateRip
Конец отчёта
Код:
Started at: понедельник, 22. 02. 2010. - 20:33.57
1 file found
1 -===- D:\Раздачи\Birmingham 6 - Mindhallucination\Birmingham 6 - Mindhallucination.flac
  Extracted successfully
  Conclusion: this track is CDDA with probability 99%
  Tempfile successfully deleted.
Finished at: понедельник, 22. 02. 2010. - 20:40.31 (operation time: 0:06.34)
Label:Transfixion
Catalog#:TFX 003 CD
Format:СD
Country:Denmark
Released:1994
Genre:Electronic
Style:EBM
Правила, инструкции, FAQ!!!
Торрент  Добавлен [26 июн 2020, 17:09] Скачать торрент Магнет ссылка
Скачать торрент
[ Размер 17.77 КБ / Просмотров 6 ]

Статус
Проверен 
 
Размер  431.36 МБ
Приватный: Нет (DHT включён)
.torrent скачан  0
 


     Отправить личное сообщение
   
Страница 1 из 1
Показать сообщения за:  Поле сортировки  
Начать новую тему Ответить на тему


Сейчас этот форум просматривают: нет зарегистрированных пользователей и гости: 0


Вы не можете начинать темы
Вы не можете отвечать на сообщения
Вы не можете редактировать свои сообщения
Вы не можете удалять свои сообщения
Вы не можете добавлять вложения

Перейти:  
cron