Начать новую тему Ответить на тему
Статистика раздачи
Размер: 568.8 МБ | Добавлен: 26 июн 2020, 17:29 | Скачали: 0
Сидеров: 0  [0 байт/сек]    Личеров: 0  [0 байт/сек]
Пред. тема | След. тема 

Автор
Сообщение

СообщениеДобавлено: 26 июн 2020, 17:29 

Ответить с цитатой 

Bang Elektronika / Aktivierung!
Жанр: EBM
Страна-производитель диска: Germany
Год издания диска: 2011
Издатель (лейбл): Infacted Recordings
Номер по каталогу: FACT 3181
Страна: Germany
Аудиокодек: FLAC (*.flac)
Тип рипа: image+.cue
Битрейт аудио: lossless
Продолжительность: 1:16:12.53
Источник (релизер): CD из личной коллекции.
Наличие сканов в содержимом раздачи: да
Треклист:
01. Aktivierung! (Nacht Mix) 4:30
02. Krieg Live Via Satellit (Gray Room Mix) 4:23
03. Flasche In Der Hand 4:55
04. Tanz Des Lebens 5:59
05. Aetzend (Machine Gun Dub) 4:57
06. Versuchung (Temptation) 5:38
07. Grosstadt Melodie 5:30
08. Elektronischer Blitzkrieg 4:10
09. Aktivierung 5:39
10. Closer 5:09
11. Allein Gegen Alle 5:16
12. Music To March To 5:49
13. Aktivierung (Rekon Mix) 5:22
14. Tripwire Trance (Edit) 4:37
15. Love Goddess Assembly Line (Edit) 3:50
Discogs
Код:
Exact Audio Copy V0.99 prebeta 5 from 4. May 2009
Отчёт EAC об извлечении, выполненном 11. сентября 2011, 14:22
Bang Elektronika / Aktivierung
Дисковод: TSSTcorpCDDVDW TS-L632H   Adapter: 0  ID: 0
Режим чтения                 : Достоверность
Использование точного потока : Да
Отключение кэша аудио        : Да
Использование указателей C2  : Нет
Коррекция смещения при чтении                     : 6
Способность читать области Lead-in и Lead-out     : Нет
Заполнение пропущенных сэмплов тишиной            : Да
Удаление блоков с тишиной в начале и конце        : Нет
При вычислениях CRC использовались нулевые сэмплы : Да
Интерфейс                                         : Встроенный Win32-интерфейс для Win NT/2000
Выходной формат          : Пользовательский кодировщик
Выбранный битрейт        : 1024 kBit/s
Качество                 : Высокий
Добавление ID3-тэга      : Нет
Утилита сжатия           : C:\Program Files\Exact Audio Copy\FLAC\FLAC.EXE
Дополнительные параметры : -6 -V -T "ARTIST=%a" -T "TITLE=%t" -T "ALBUM=%g" -T "DATE=%y" -T "TRACKNUMBER=%n" -T "GENRE=%m" -T "COMMENT=%e" %s -o %d
TOC извлечённого CD
     Трек |   Старт  | Длительность | Начальный сектор | Конечный сектор
    ---------------------------------------------------------------------
       1  |  0:00.00 |    4:32.00   |           0      |      20399
       2  |  4:32.00 |    4:24.59   |       20400      |      40258
       3  |  8:56.59 |    4:56.56   |       40259      |      62514
       4  | 13:53.40 |    6:01.13   |       62515      |      89602
       5  | 19:54.53 |    4:58.43   |       89603      |     111995
       6  | 24:53.21 |    5:39.63   |      111996      |     137483
       7  | 30:33.09 |    5:32.29   |      137484      |     162412
       8  | 36:05.38 |    4:12.21   |      162413      |     181333
       9  | 40:17.59 |    5:41.01   |      181334      |     206909
      10  | 45:58.60 |    5:10.74   |      206910      |     230233
      11  | 51:09.59 |    5:18.00   |      230234      |     254083
      12  | 56:27.59 |    5:50.72   |      254084      |     280405
      13  | 62:18.56 |    5:24.22   |      280406      |     304727
      14  | 67:43.03 |    4:39.32   |      304728      |     325684
      15  | 72:22.35 |    3:50.19   |      325685      |     342953
Характеристики диапазона извлечения и сообщения об ошибках
Выбранный диапазон
     Имя файла C:\Users\Алексей\Desktop\iPOD\Bang Elektronika - Aktivierung.wav
     Пиковый уровень 100.0 %
     Качество диапазона 100.0 %
     CRC теста 66B04DBA
     CRC копии 66B04DBA
     Копирование... OK
Ошибок не произошло
AccurateRip: сводка
Трек  1  нет в базе данных
Трек  2  нет в базе данных
Трек  3  нет в базе данных
Трек  4  нет в базе данных
Трек  5  нет в базе данных
Трек  6  нет в базе данных
Трек  7  нет в базе данных
Трек  8  нет в базе данных
Трек  9  нет в базе данных
Трек 10  нет в базе данных
Трек 11  нет в базе данных
Трек 12  нет в базе данных
Трек 13  нет в базе данных
Трек 14  нет в базе данных
Трек 15  нет в базе данных
Ни одного трека нет в базе AccurateRip
Конец отчёта
Код:
REM GENRE EBM
REM DATE 2011
REM DISCID E111DC0F
REM COMMENT "ExactAudioCopy v0.99pb5"
PERFORMER "Bang Elektronika"
TITLE "Aktivierung"
FILE "Bang Elektronika - Aktivierung.flac" WAVE
  TRACK 01 AUDIO
    TITLE "Aktivierung (Nacht Mix)"
    PERFORMER "Bang Elektronika"
    INDEX 01 00:00:00
  TRACK 02 AUDIO
    TITLE "Krieg Live Via Satellit (Gray Room Mix)"
    PERFORMER "Bang Elektronika"
    INDEX 00 04:30:00
    INDEX 01 04:32:00
  TRACK 03 AUDIO
    TITLE "Flasche In Der Hand"
    PERFORMER "Bang Elektronika"
    INDEX 00 08:54:59
    INDEX 01 08:56:59
  TRACK 04 AUDIO
    TITLE "Tanz Des Lebens"
    PERFORMER "Bang Elektronika"
    INDEX 00 13:51:40
    INDEX 01 13:53:40
  TRACK 05 AUDIO
    TITLE "Aetzend (Machine Gun Dub)"
    PERFORMER "Bang Elektronika"
    INDEX 00 19:52:53
    INDEX 01 19:54:53
  TRACK 06 AUDIO
    TITLE "Versuchung (Temptation)"
    PERFORMER "Bang Elektronika"
    INDEX 00 24:51:21
    INDEX 01 24:53:21
  TRACK 07 AUDIO
    TITLE "Grosstadt Melodie"
    PERFORMER "Bang Elektronika"
    INDEX 00 30:31:09
    INDEX 01 30:33:09
  TRACK 08 AUDIO
    TITLE "Elektronischer Blitzkrieg"
    PERFORMER "Bang Elektronika"
    INDEX 00 36:03:38
    INDEX 01 36:05:38
  TRACK 09 AUDIO
    TITLE "Aktivierung"
    PERFORMER "Bang Elektronika"
    INDEX 00 40:15:59
    INDEX 01 40:17:59
  TRACK 10 AUDIO
    TITLE "Closer"
    PERFORMER "Bang Elektronika"
    INDEX 00 45:56:60
    INDEX 01 45:58:60
  TRACK 11 AUDIO
    TITLE "Allein Gegen Alle"
    PERFORMER "Bang Elektronika"
    INDEX 00 51:07:59
    INDEX 01 51:09:59
  TRACK 12 AUDIO
    TITLE "Music To March To"
    PERFORMER "Bang Elektronika"
    INDEX 00 56:25:59
    INDEX 01 56:27:59
  TRACK 13 AUDIO
    TITLE "Aktivierung (Rekon Mix)"
    PERFORMER "Bang Elektronika"
    INDEX 00 62:16:56
    INDEX 01 62:18:56
  TRACK 14 AUDIO
    TITLE "Tripwire Trance (Edit)"
    PERFORMER "Bang Elektronika"
    INDEX 00 67:41:03
    INDEX 01 67:43:03
  TRACK 15 AUDIO
    TITLE "Love Godess Assembly Line (Edit)"
    PERFORMER "Bang Elektronika"
    INDEX 00 72:20:35
    INDEX 01 72:22:35
Код:
[url=https://fastpic.ru/view/31/2011/0911/1a78b8632503f96cf6e1c4f3e9e5bb17.jpg.html][img]http://i31.fastpic.ru/thumb/2011/0911/17/1a78b8632503f96cf6e1c4f3e9e5bb17.jpeg[/img][/url][url=https://fastpic.ru/view/32/2011/0911/d8f15538fadfff08c55c49aed5615e79.jpg.html][img]http://i32.fastpic.ru/thumb/2011/0911/79/d8f15538fadfff08c55c49aed5615e79.jpeg[/img][/url][url=https://fastpic.ru/view/32/2011/0911/7767bdf2039c34a5142f2be5aece6398.jpg.html][img]http://i32.fastpic.ru/thumb/2011/0911/98/7767bdf2039c34a5142f2be5aece6398.jpeg[/img][/url][url=https://fastpic.ru/view/32/2011/0911/635260af3d3b95e99a47601c2b36dc6a.jpg.html][img]http://i32.fastpic.ru/thumb/2011/0911/6a/635260af3d3b95e99a47601c2b36dc6a.jpeg[/img][/url]
Выражаю благодарность oflasen1 за предоставленные HQ scans!
Правила, инструкции, FAQ!!!
Торрент  Добавлен [26 июн 2020, 17:29] Скачать торрент Магнет ссылка
Скачать торрент
[ Размер 12.25 КБ / Просмотров 9 ]

Статус
Проверен 
 
Размер  568.8 МБ
Приватный: Нет (DHT включён)
.torrent скачан  0
 


     Отправить личное сообщение
   
Страница 1 из 1
Показать сообщения за:  Поле сортировки  
Начать новую тему Ответить на тему


Сейчас этот форум просматривают: нет зарегистрированных пользователей и гости: 0


Вы не можете начинать темы
Вы не можете отвечать на сообщения
Вы не можете редактировать свои сообщения
Вы не можете удалять свои сообщения
Вы не можете добавлять вложения

Перейти:  
cron