Начать новую тему Ответить на тему
Статистика раздачи
Размер: 343.38 МБ | Добавлен: 26 июн 2020, 18:56 | Скачали: 0
Сидеров: 0  [0 байт/сек]    Личеров: 0  [0 байт/сек]
Пред. тема | След. тема 

Автор
Сообщение

СообщениеДобавлено: 26 июн 2020, 18:56 

Ответить с цитатой 

Rummelsnuff / Sender Karlshorst
Жанр: EBM, Avantgarde
Носитель: CD
Страна-производитель диска (релиза): Germany
Год издания: 2010
Издатель (лейбл): Out Of Line
Номер по каталогу: OUT 405
Страна исполнителя (группы): Germany
Аудиокодек: FLAC (*.flac)
Тип рипа: image+.cue
Продолжительность: 0:50:41:45
Источник: собственный рип
Наличие сканов в содержимом раздачи: нет
Треклист:
1 Der Heizer 3:25
2 Freier Fall 3:58
3 Eindruck Schinden 3:25
4 Donnerbolzen 2:12
5 Pumper 3:52
6 Salzig Schmeckt Der Wind 3:48
7 Mandy 3:47
8 Winterlied 2:57
9 Nathalie 3:51
10 Boxerlied 2:53
11 Der Sieg Ist Pflicht 2:24
12 Stalinallee 4:13
13 Wolgastrom 3:30
14 Wenn Du Aus Dem Leben Schwindest 3:24
15 Hombres Hombres 3:02
Код:
Exact Audio Copy V1.0 beta 3 from 29. August 2011
Отчёт EAC об извлечении, выполненном 18. ноября 2019, 22:58
Rummelsnuff / Sender Karlshorst
Дисковод: TSSTcorpCDDVDW SH-224DB   Adapter: 1  ID: 0
Режим чтения                 : Достоверность
Использование точного потока : Да
Отключение кэша аудио        : Да
Использование указателей C2  : Нет
Коррекция смещения при чтении                     : 6
Способность читать области Lead-in и Lead-out     : Нет
Заполнение пропущенных сэмплов тишиной            : Да
Удаление блоков с тишиной в начале и конце        : Нет
При вычислениях CRC использовались нулевые сэмплы : Да
Интерфейс                                         : Встроенный Win32-интерфейс для Win NT/2000
Выходной формат          : Пользовательский кодировщик
Выбранный битрейт        : 128 kBit/s
Качество                 : Высокий
Добавление ID3-тега      : Нет
Утилита сжатия           : C:\Program Files (x86)\FLAC\flac.exe
Дополнительные параметры : -V -8 -T "Date=%year%" -T "Genre=%genre%" %source%
TOC извлечённого CD
     Трек |   Старт  | Длительность | Начальный сектор | Конечный сектор
    ---------------------------------------------------------------------
       1  |  0:00.00 |    3:25.17   |           0      |      15391
       2  |  3:25.17 |    3:58.00   |       15392      |      33241
       3  |  7:23.17 |    3:25.14   |       33242      |      48630
       4  | 10:48.31 |    2:12.00   |       48631      |      58530
       5  | 13:00.31 |    3:52.00   |       58531      |      75930
       6  | 16:52.31 |    3:48.00   |       75931      |      93030
       7  | 20:40.31 |    3:47.28   |       93031      |     110083
       8  | 24:27.59 |    2:57.09   |      110084      |     123367
       9  | 27:24.68 |    3:51.00   |      123368      |     140692
      10  | 31:15.68 |    2:52.61   |      140693      |     153653
      11  | 34:08.54 |    2:23.39   |      153654      |     164417
      12  | 36:32.18 |    4:13.29   |      164418      |     183421
      13  | 40:45.47 |    3:29.69   |      183422      |     199165
      14  | 44:15.41 |    3:23.70   |      199166      |     214460
      15  | 47:39.36 |    3:01.74   |      214461      |     228109
Характеристики диапазона извлечения и сообщения об ошибках
Выбранный диапазон
     Имя файла C:\EAC\Rummelsnuff - Sender Karlshorst - 2010 CD\Rummelsnuff - Sender Karlshorst.wav
     Пиковый уровень 98.8 %
     Скорость извлечения 7.1 X
     Качество диапазона 99.9 %
     CRC теста 7F6718EE
     CRC копии 7F6718EE
     Копирование... OK
Ошибок не произошло
AccurateRip: сводка
Трек  1  : извлечено точно (доверие 5)  [EAE4F6D9]  (AR v2)
Трек  2  : извлечено точно (доверие 5)  [D5E15D0E]  (AR v2)
Трек  3  : извлечено точно (доверие 5)  [C7FD2E9A]  (AR v2)
Трек  4  : извлечено точно (доверие 5)  [58FB32CA]  (AR v2)
Трек  5  : извлечено точно (доверие 5)  [77DA4AE4]  (AR v2)
Трек  6  : извлечено точно (доверие 5)  [4B633F3B]  (AR v2)
Трек  7  : извлечено точно (доверие 5)  [A929377D]  (AR v2)
Трек  8  : извлечено точно (доверие 5)  [1AB84E08]  (AR v2)
Трек  9  : извлечено точно (доверие 5)  [DA23D8A4]  (AR v2)
Трек 10  : извлечено точно (доверие 5)  [A07EECB6]  (AR v2)
Трек 11  : извлечено точно (доверие 5)  [46860639]  (AR v2)
Трек 12  : извлечено точно (доверие 5)  [566C5CC6]  (AR v2)
Трек 13  : извлечено точно (доверие 5)  [9C268BB7]  (AR v2)
Трек 14  : извлечено точно (доверие 5)  [BDD025A9]  (AR v2)
Трек 15  : извлечено точно (доверие 5)  [1101D8B6]  (AR v2)
Все треки извлечены точно
Конец отчёта
==== Контрольная сумма отчёта 15961DC07C64842EBAA40D4B57182274BF6DED4CC36E609DD0981BD7EA040353 ====
Код:
REM DATE 2010
REM DISCID CC0BE10F
REM COMMENT "ExactAudioCopy v1.0b3"
PERFORMER "Rummelsnuff"
TITLE "Sender Karlshorst"
FILE "Rummelsnuff - Sender Karlshorst.flac" WAVE
  TRACK 01 AUDIO
    TITLE "Der Heizer"
    PERFORMER "Rummelsnuff"
    INDEX 01 00:00:00
  TRACK 02 AUDIO
    TITLE "Freier Fall"
    PERFORMER "Rummelsnuff"
    INDEX 00 03:23:18
    INDEX 01 03:25:17
  TRACK 03 AUDIO
    TITLE " Eindruck Schinden"
    PERFORMER "Rummelsnuff"
    INDEX 00 07:21:18
    INDEX 01 07:23:17
  TRACK 04 AUDIO
    TITLE "Donnerbolzen"
    PERFORMER "Rummelsnuff"
    INDEX 00 10:46:32
    INDEX 01 10:48:31
  TRACK 05 AUDIO
    TITLE "Pumper"
    PERFORMER "Rummelsnuff"
    INDEX 00 12:58:32
    INDEX 01 13:00:31
  TRACK 06 AUDIO
    TITLE "Salzig Schmeckt Der Wind"
    PERFORMER "Rummelsnuff"
    INDEX 00 16:50:32
    INDEX 01 16:52:31
  TRACK 07 AUDIO
    TITLE "Mandy"
    PERFORMER "Rummelsnuff"
    INDEX 00 20:38:32
    INDEX 01 20:40:31
  TRACK 08 AUDIO
    TITLE "Winterlied"
    PERFORMER "Rummelsnuff"
    INDEX 00 24:25:60
    INDEX 01 24:27:59
  TRACK 09 AUDIO
    TITLE "Nathalie"
    PERFORMER "Rummelsnuff"
    INDEX 00 27:22:69
    INDEX 01 27:24:68
  TRACK 10 AUDIO
    TITLE "Boxerlied"
    PERFORMER "Rummelsnuff"
    INDEX 00 31:13:70
    INDEX 01 31:15:68
  TRACK 11 AUDIO
    TITLE "Der Sieg Ist Pflicht"
    PERFORMER "Rummelsnuff"
    INDEX 00 34:06:55
    INDEX 01 34:08:54
  TRACK 12 AUDIO
    TITLE "Stalinallee"
    PERFORMER "Rummelsnuff"
    INDEX 00 36:30:19
    INDEX 01 36:32:18
  TRACK 13 AUDIO
    TITLE "Wolgastrom"
    PERFORMER "Rummelsnuff"
    INDEX 00 40:43:48
    INDEX 01 40:45:47
  TRACK 14 AUDIO
    TITLE "Wenn Du Aus Dem Leben Schwindest"
    PERFORMER "Rummelsnuff"
    INDEX 00 44:10:73
    INDEX 01 44:15:41
  TRACK 15 AUDIO
    TITLE "Hombres Hombres"
    PERFORMER "Rummelsnuff"
    INDEX 00 47:35:38
    INDEX 01 47:39:36
Правила, инструкции, FAQ!!!
Торрент  Добавлен [26 июн 2020, 18:56] Скачать торрент Магнет ссылка
Скачать торрент
[ Размер 14.09 КБ / Просмотров 13 ]

Статус
Проверен 
 
Размер  343.38 МБ
Приватный: Нет (DHT включён)
.torrent скачан  0
 


     Отправить личное сообщение
   
Страница 1 из 1
Показать сообщения за:  Поле сортировки  
Начать новую тему Ответить на тему


Сейчас этот форум просматривают: нет зарегистрированных пользователей и гости: 0


Вы не можете начинать темы
Вы не можете отвечать на сообщения
Вы не можете редактировать свои сообщения
Вы не можете удалять свои сообщения
Вы не можете добавлять вложения

Перейти:  
cron
cron