Начать новую тему Ответить на тему
Статистика раздачи
Размер: 333.77 МБ | Добавлен: 26 июн 2020, 20:44 | Скачали: 0
Сидеров: 0  [0 байт/сек]    Личеров: 0  [0 байт/сек]
Пред. тема | След. тема 

Автор
Сообщение

СообщениеДобавлено: 26 июн 2020, 20:44 

Ответить с цитатой 

Rummelsnuff / Himmelfahrt
Жанр: EBM, Avantgarde
Носитель: CD
Страна-производитель диска (релиза): Germany
Год издания: 2012
Издатель (лейбл): Out Of Line
Номер по каталогу: OUT 541
Страна исполнителя (группы): Germany
Аудиокодек: FLAC (*.flac)
Тип рипа: image+.cue
Продолжительность: 0:50:25:62
Источник: собственный рип
Наличие сканов в содержимом раздачи: нет
Треклист:
1 Der Schrauber 3:15
2 Trägt Die Woge Dein Boot 3:43
3 Der Türsteher 3:25
4 Machen Wir Den Tanz (Himmelfahrtsversion) 4:02
5 Amundsen 3:44
6 Himmelfahrt 3:36
7 Azzurro 4:17
8 Derbe Strommusik 2:47
9 Daddy Cool 4:06
10 In Der Schweiz 3:10
11 Seemann 4:49
12 Eine Kleine Ewigkeit 3:53
13 Chihuahua 4:06
14 Das Ist Die Liebe Der Matrosen 1:25
Код:
Exact Audio Copy V1.0 beta 3 from 29. August 2011
Отчёт EAC об извлечении, выполненном 18. ноября 2019, 23:45
Rummelsnuff / Himmelfahrt
Дисковод: TSSTcorpCDDVDW SH-224DB   Adapter: 1  ID: 0
Режим чтения                 : Достоверность
Использование точного потока : Да
Отключение кэша аудио        : Да
Использование указателей C2  : Нет
Коррекция смещения при чтении                     : 6
Способность читать области Lead-in и Lead-out     : Нет
Заполнение пропущенных сэмплов тишиной            : Да
Удаление блоков с тишиной в начале и конце        : Нет
При вычислениях CRC использовались нулевые сэмплы : Да
Интерфейс                                         : Встроенный Win32-интерфейс для Win NT/2000
Выходной формат          : Пользовательский кодировщик
Выбранный битрейт        : 128 kBit/s
Качество                 : Высокий
Добавление ID3-тега      : Нет
Утилита сжатия           : C:\Program Files (x86)\FLAC\flac.exe
Дополнительные параметры : -V -8 -T "Date=%year%" -T "Genre=%genre%" %source%
TOC извлечённого CD
     Трек |   Старт  | Длительность | Начальный сектор | Конечный сектор
    ---------------------------------------------------------------------
       1  |  0:00.00 |    3:15.72   |           0      |      14696
       2  |  3:15.72 |    3:43.46   |       14697      |      31467
       3  |  6:59.43 |    3:25.16   |       31468      |      46858
       4  | 10:24.59 |    4:02.17   |       46859      |      65025
       5  | 14:27.01 |    3:44.72   |       65026      |      81897
       6  | 18:11.73 |    3:36.38   |       81898      |      98135
       7  | 21:48.36 |    4:17.43   |       98136      |     117453
       8  | 26:06.04 |    2:47.19   |      117454      |     129997
       9  | 28:53.23 |    4:06.61   |      129998      |     148508
      10  | 33:00.09 |    3:10.45   |      148509      |     162803
      11  | 36:10.54 |    4:49.32   |      162804      |     184510
      12  | 41:00.11 |    3:53.41   |      184511      |     202026
      13  | 44:53.52 |    4:06.35   |      202027      |     220511
      14  | 49:00.12 |    1:25.50   |      220512      |     226936
Характеристики диапазона извлечения и сообщения об ошибках
Выбранный диапазон
     Имя файла C:\EAC\Rummelsnuff - Himmelfahrt - 2012 CD\Rummelsnuff - Himmelfahrt.wav
     Пиковый уровень 100.0 %
     Скорость извлечения 2.9 X
     Качество диапазона 99.9 %
     CRC теста 5E4627B5
     CRC копии 5E4627B5
     Копирование... OK
Ошибок не произошло
AccurateRip: сводка
Трек  1  : извлечено точно (доверие 3)  [2A91EF11]  (AR v2)
Трек  2  : извлечено точно (доверие 3)  [0F9CE212]  (AR v2)
Трек  3  : извлечено точно (доверие 3)  [A89ACED1]  (AR v2)
Трек  4  : извлечено точно (доверие 3)  [CEBF312D]  (AR v2)
Трек  5  : извлечено точно (доверие 3)  [DF16021E]  (AR v2)
Трек  6  : извлечено точно (доверие 3)  [8EE39A5F]  (AR v2)
Трек  7  : извлечено точно (доверие 3)  [24BA5563]  (AR v2)
Трек  8  : извлечено точно (доверие 3)  [0332BB2C]  (AR v2)
Трек  9  : извлечено точно (доверие 3)  [3D125AA0]  (AR v2)
Трек 10  : извлечено точно (доверие 3)  [9131511F]  (AR v2)
Трек 11  : извлечено точно (доверие 3)  [4B3AAA68]  (AR v2)
Трек 12  : извлечено точно (доверие 3)  [BD9B6EA1]  (AR v2)
Трек 13  : извлечено точно (доверие 3)  [9678B053]  (AR v2)
Трек 14  : извлечено точно (доверие 3)  [D1D74787]  (AR v2)
Все треки извлечены точно
Конец отчёта
==== Контрольная сумма отчёта 4457B6B34E72EE0CA23274E1B11CA23520CAD667FDD95930D989F480AB8664BF ====
Код:
REM DATE 2012
REM DISCID CA0BD10E
REM COMMENT "ExactAudioCopy v1.0b3"
PERFORMER "Rummelsnuff"
TITLE "Himmelfahrt"
FILE "Rummelsnuff - Himmelfahrt.flac" WAVE
  TRACK 01 AUDIO
    TITLE "Der Schrauber"
    PERFORMER "Rummelsnuff"
    INDEX 01 00:00:00
  TRACK 02 AUDIO
    TITLE " Tragt Die Woge Dein Boot"
    PERFORMER "Rummelsnuff"
    INDEX 01 03:15:72
  TRACK 03 AUDIO
    TITLE "Der Tursteher"
    PERFORMER "Rummelsnuff"
    INDEX 01 06:59:43
  TRACK 04 AUDIO
    TITLE " Machen Wir Den Tanz (Himmelfahrtsversion)"
    PERFORMER "Rummelsnuff"
    INDEX 01 10:24:59
  TRACK 05 AUDIO
    TITLE " Amundsen"
    PERFORMER "Rummelsnuff"
    INDEX 01 14:27:01
  TRACK 06 AUDIO
    TITLE "Himmelfahrt"
    PERFORMER "Rummelsnuff"
    INDEX 01 18:11:73
  TRACK 07 AUDIO
    TITLE "Azzurro"
    PERFORMER "Rummelsnuff"
    INDEX 01 21:48:36
  TRACK 08 AUDIO
    TITLE " Derbe Strommusik"
    PERFORMER "Rummelsnuff"
    INDEX 01 26:06:04
  TRACK 09 AUDIO
    TITLE "Daddy Cool"
    PERFORMER "Rummelsnuff"
    INDEX 01 28:53:23
  TRACK 10 AUDIO
    TITLE "In Der Schweiz"
    PERFORMER "Rummelsnuff"
    INDEX 01 33:00:09
  TRACK 11 AUDIO
    TITLE "Seemann"
    PERFORMER "Rummelsnuff"
    INDEX 01 36:10:54
  TRACK 12 AUDIO
    TITLE " Eine Kleine Ewigkeit"
    PERFORMER "Rummelsnuff"
    INDEX 01 41:00:11
  TRACK 13 AUDIO
    TITLE "Chihuahua"
    PERFORMER "Rummelsnuff"
    INDEX 01 44:53:52
  TRACK 14 AUDIO
    TITLE "Das Ist Die Liebe Der Matrosen"
    PERFORMER "Rummelsnuff"
    INDEX 01 49:00:12
Правила, инструкции, FAQ!!!
Торрент  Добавлен [26 июн 2020, 20:44] Скачать торрент Магнет ссылка
Скачать торрент
[ Размер 13.69 КБ / Просмотров 9 ]

Статус
Проверен 
 
Размер  333.77 МБ
Приватный: Нет (DHT включён)
.torrent скачан  0
 


     Отправить личное сообщение
   
Страница 1 из 1
Показать сообщения за:  Поле сортировки  
Начать новую тему Ответить на тему


Сейчас этот форум просматривают: нет зарегистрированных пользователей и гости: 0


Вы не можете начинать темы
Вы не можете отвечать на сообщения
Вы не можете редактировать свои сообщения
Вы не можете удалять свои сообщения
Вы не можете добавлять вложения

Перейти:  
cron