Начать новую тему Ответить на тему
Статистика раздачи
Размер: 324.83 МБ | Добавлен: 26 июн 2020, 20:15 | Скачали: 0
Сидеров: 0  [0 байт/сек]    Личеров: 0  [0 байт/сек]
Пред. тема | След. тема 

Автор
Сообщение

СообщениеДобавлено: 26 июн 2020, 20:15 

Ответить с цитатой 

Angstfabrikk / Uneilig
#777
Жанр: EBM
Страна-производитель диска: Germany
Год издания: 2012
Издатель (лейбл): JUT
Номер по каталогу: JUT 00212
Формат: CD, Album
Аудиокодек: FLAC (*.flac)
Тип рипа: image+.cue
Битрейт аудио: lossless
Продолжительность: 0:45:10.10
Источник (релизер): Физический носитель (Собственный рип с оригинала)
Наличие сканов в содержимом раздачи: да (600dpi, .jpg)
Треклист:
01. Flucht Aus Berlin [4:19]
02. Aengstlich [4:23]
03. Homoerotique [3:50]
04. Musquelkatze [3:52]
05. EBM Aerobique [4:22]
06. Orientalique [3:56]
07. Maschinqua Quaputt [4:18]
08. Ique [3:41]
09. Liebchen [4:46]
10. Ameriquanos [3:08]
11. Slot Machine (Feat. Dennis Schober) [4:38]
Код:
Exact Audio Copy V1.0 beta 3 from 29. August 2011
EAC extraction logfile from 24. September 2012, 19:27
Angstfabrikk / Uneilig
Used drive  : PLEXTOR BDDVDR PX-B320SA   Adapter: 6  ID: 1
Read mode               : Secure
Utilize accurate stream : Yes
Defeat audio cache      : Yes
Make use of C2 pointers : No
Read offset correction                      : 6
Overread into Lead-In and Lead-Out          : No
Fill up missing offset samples with silence : Yes
Delete leading and trailing silent blocks   : No
Null samples used in CRC calculations       : Yes
Used interface                              : Installed external ASPI interface
Used output format              : User Defined Encoder
Selected bitrate                : 128 kBit/s
Quality                         : High
Add ID3 tag                     : No
Command line compressor         : C:\Program Files (x86)\FLAC\flac.exe
Additional command line options : -V -8 -T "Date=%year%" -T "Genre=%genre%" %source%
TOC of the extracted CD
     Track |   Start  |  Length  | Start sector | End sector
    ---------------------------------------------------------
        1  |  0:00.00 |  4:18.69 |         0    |    19418
        2  |  4:18.69 |  4:22.47 |     19419    |    39115
        3  |  8:41.41 |  3:49.35 |     39116    |    56325
        4  | 12:31.01 |  3:51.63 |     56326    |    73713
        5  | 16:22.64 |  4:22.08 |     73714    |    93371
        6  | 20:44.72 |  3:55.49 |     93372    |   111045
        7  | 24:40.46 |  4:17.57 |    111046    |   130377
        8  | 28:58.28 |  3:40.35 |    130378    |   146912
        9  | 32:38.63 |  4:46.06 |    146913    |   168368
       10  | 37:24.69 |  3:07.54 |    168369    |   182447
       11  | 40:32.48 |  4:37.37 |    182448    |   203259
Range status and errors
Selected range
     Filename D:\Angstfabrikk - Uneilig (2012)\Angstfabrikk - Uneilig.wav
     Peak level 96.6 %
     Extraction speed 7.0 X
     Range quality 99.9 %
     Test CRC 2F71207F
     Copy CRC 2F71207F
     Copy OK
No errors occurred
AccurateRip summary
Track  1  not present in database
Track  2  not present in database
Track  3  not present in database
Track  4  not present in database
Track  5  not present in database
Track  6  not present in database
Track  7  not present in database
Track  8  not present in database
Track  9  not present in database
Track 10  not present in database
Track 11  not present in database
None of the tracks are present in the AccurateRip database
End of status report
==== Log checksum 3A0B41143E2332301FA982012E3CCC454AB4458F1C3B8793E695A41B88CBE34A ====
Раздача осуществляется исключительно в ознакомительных целях!
Всем, кому понравилось творчество Angstfabrikk
, после ознакомления, советую приобрести лицензионный диск, и тем самым поддержать исполнителя !
Handing out is carried out only to get acquainted!
Everyone who likes to art Angstfabrikk
, after reviewing, I advise you to buy a license disk, and thus support the artist !
Правила, инструкции, FAQ!!!
Торрент  Добавлен [26 июн 2020, 20:15] Скачать торрент Магнет ссылка
Скачать торрент
[ Размер 13.67 КБ / Просмотров 7 ]

Статус
Проверен 
 
Размер  324.83 МБ
Приватный: Нет (DHT включён)
.torrent скачан  0
 


     Отправить личное сообщение
   
Страница 1 из 1
Показать сообщения за:  Поле сортировки  
Начать новую тему Ответить на тему


Сейчас этот форум просматривают: нет зарегистрированных пользователей и гости: 0


Вы не можете начинать темы
Вы не можете отвечать на сообщения
Вы не можете редактировать свои сообщения
Вы не можете удалять свои сообщения
Вы не можете добавлять вложения

Перейти:  
cron