Начать новую тему Ответить на тему
Статистика раздачи
Размер: 481.55 МБ | Добавлен: 26 июн 2020, 17:04 | Скачали: 0
Сидеров: 0  [0 байт/сек]    Личеров: 0  [0 байт/сек]
Пред. тема | След. тема 

Автор
Сообщение

СообщениеДобавлено: 26 июн 2020, 17:04 

Ответить с цитатой 

Angstfabrikk / Daneben Heißt Richtig Liegen
Жанр: EBM
Страна-производитель диска: Germany
Год издания диска: 2009
Издатель (лейбл): JUT
Номер по каталогу: JUT 00108
Страна: Germany
Аудио кодек: FLAC (*.flac)
Тип рипа: image+.cue
Битрейт аудио: lossless
Продолжительность: 1:04:56.37
Источник (релизер): CD из личной коллекции.
Наличие сканов в содержимом раздачи: да
Треклист:
01. Nicht Wie Die Anderen 4:14
02. Maschinenmädchen 4:57
03. Brot Und Spiele 4:36
04. 100% Not Sure 3:55
05. S.W.G.A.C.D.S. 4:22
06. Paradox 4:40
07. Weltenwandler 4:23
08. Angsthase 4:53
09. California Über Alles (Written By Dead Kennedys) 3:36
10. Arbeiterheld 4:03
11. Maschinenmädchen (Remix - AD:keY) 4:06
12. Paradox (Remix - Agonoize) 3:50
13. S.W.G.A.C.D.S. (Remix - E-Thik) 3:34
14. Maschinenmädchen (Remix - FabrikC) 5:50
15. Paradox (Remix - P24) 3:57
Код:
Exact Audio Copy V0.99 prebeta 5 from 4. May 2009
Отчёт EAC об извлечении, выполненном 16. декабря 2010, 19:29
Angstfabrikk / Daneben Heisst Richtig Liegen
Дисковод: TSSTcorpCDDVDW TS-L632H   Adapter: 0  ID: 0
Режим чтения                 : Достоверность
Использование точного потока : Да
Отключение кэша аудио        : Да
Использование указателей C2  : Нет
Коррекция смещения при чтении                     : 6
Способность читать области Lead-in и Lead-out     : Нет
Заполнение пропущенных сэмплов тишиной            : Да
Удаление блоков с тишиной в начале и конце        : Нет
При вычислениях CRC использовались нулевые сэмплы : Да
Интерфейс                                         : Встроенный Win32-интерфейс для Win NT/2000
Выходной формат          : Пользовательский кодировщик
Выбранный битрейт        : 1024 kBit/s
Качество                 : Высокий
Добавление ID3-тэга      : Нет
Утилита сжатия           : C:\Program Files\Exact Audio Copy\FLAC\FLAC.EXE
Дополнительные параметры : -6 -V -T "ARTIST=%a" -T "TITLE=%t" -T "ALBUM=%g" -T "DATE=%y" -T "TRACKNUMBER=%n" -T "GENRE=%m" -T "COMMENT=%e" %s -o %d
TOC извлечённого CD
     Трек |   Старт  | Длительность | Начальный сектор | Конечный сектор
    ---------------------------------------------------------------------
       1  |  0:00.00 |    4:13.46   |           0      |      19020
       2  |  4:13.46 |    4:56.64   |       19021      |      41284
       3  |  9:10.35 |    4:36.27   |       41285      |      62011
       4  | 13:46.62 |    3:55.21   |       62012      |      79657
       5  | 17:42.08 |    4:22.18   |       79658      |      99325
       6  | 22:04.26 |    4:39.57   |       99326      |     120307
       7  | 26:44.08 |    4:23.19   |      120308      |     140051
       8  | 31:07.27 |    4:52.62   |      140052      |     162013
       9  | 36:00.14 |    3:36.00   |      162014      |     178213
      10  | 39:36.14 |    4:03.23   |      178214      |     196461
      11  | 43:39.37 |    4:06.00   |      196462      |     214911
      12  | 47:45.37 |    3:50.21   |      214912      |     232182
      13  | 51:35.58 |    3:33.46   |      232183      |     248203
      14  | 55:09.29 |    5:50.24   |      248204      |     274477
      15  | 60:59.53 |    3:56.59   |      274478      |     292236
Характеристики диапазона извлечения и сообщения об ошибках
Выбранный диапазон
     Имя файла C:\Users\Алексей\Desktop\iPOD\Angstfabrikk - Daneben Heisst Richtig Liegen.wav
     Пиковый уровень 96.7 %
     Качество диапазона 100.0 %
     CRC теста AF6570BB
     CRC копии AF6570BB
     Копирование... OK
Ошибок не произошло
AccurateRip: сводка
Трек  1  нет в базе данных
Трек  2  нет в базе данных
Трек  3  нет в базе данных
Трек  4  нет в базе данных
Трек  5  нет в базе данных
Трек  6  нет в базе данных
Трек  7  нет в базе данных
Трек  8  нет в базе данных
Трек  9  нет в базе данных
Трек 10  нет в базе данных
Трек 11  нет в базе данных
Трек 12  нет в базе данных
Трек 13  нет в базе данных
Трек 14  нет в базе данных
Трек 15  нет в базе данных
Ни одного трека нет в базе AccurateRip
Конец отчёта
Код:
REM GENRE "EBM Old School"
REM DATE 2009
REM DISCID D40F380F
REM COMMENT "ExactAudioCopy v0.99pb5"
PERFORMER "Angstfabrikk"
TITLE "Daneben Heisst Richtig Liegen"
FILE "Angstfabrikk - Daneben Heisst Richtig Liegen.flac" WAVE
  TRACK 01 AUDIO
    TITLE "Nicht Wie Die Anderen"
    PERFORMER "Angstfabrikk"
    INDEX 01 00:00:00
  TRACK 02 AUDIO
    TITLE "Maschinenmaedchen"
    PERFORMER "Angstfabrikk"
    INDEX 00 04:10:46
    INDEX 01 04:13:46
  TRACK 03 AUDIO
    TITLE "Brot Und Spiele "
    PERFORMER "Angstfabrikk"
    INDEX 00 09:07:35
    INDEX 01 09:10:35
  TRACK 04 AUDIO
    TITLE "100% Not Sure"
    PERFORMER "Angstfabrikk"
    INDEX 00 13:43:62
    INDEX 01 13:46:62
  TRACK 05 AUDIO
    TITLE "S.W.G.A.C.D.S."
    PERFORMER "Angstfabrikk"
    INDEX 00 17:39:08
    INDEX 01 17:42:08
  TRACK 06 AUDIO
    TITLE "Paradox"
    PERFORMER "Angstfabrikk"
    INDEX 00 22:01:26
    INDEX 01 22:04:26
  TRACK 07 AUDIO
    TITLE "Weltenwandler"
    PERFORMER "Angstfabrikk"
    INDEX 00 26:41:08
    INDEX 01 26:44:08
  TRACK 08 AUDIO
    TITLE "Angsthase"
    PERFORMER "Angstfabrikk"
    INDEX 00 31:04:27
    INDEX 01 31:07:27
  TRACK 09 AUDIO
    TITLE "California Ueber Alles"
    PERFORMER "Angstfabrikk"
    INDEX 00 35:57:14
    INDEX 01 36:00:14
  TRACK 10 AUDIO
    TITLE "Arbeiterheld"
    PERFORMER "Angstfabrikk"
    INDEX 00 39:33:14
    INDEX 01 39:36:14
  TRACK 11 AUDIO
    TITLE "Maschinenmaedchen (Ad:Key Remix)"
    PERFORMER "Angstfabrikk"
    INDEX 00 43:36:37
    INDEX 01 43:39:37
  TRACK 12 AUDIO
    TITLE "Paradox (Agonoize Remix)"
    PERFORMER "Angstfabrikk"
    INDEX 00 47:42:37
    INDEX 01 47:45:37
  TRACK 13 AUDIO
    TITLE "S.W.G.A.C.D.S. (E-Thik Remix)"
    PERFORMER "Angstfabrikk"
    INDEX 00 51:32:58
    INDEX 01 51:35:58
  TRACK 14 AUDIO
    TITLE "Maschinenmaedchen (Ab-Mix By Fabrikc) "
    PERFORMER "Angstfabrikk"
    INDEX 00 55:06:29
    INDEX 01 55:09:29
  TRACK 15 AUDIO
    TITLE "Paradox (P24 Remix)"
    PERFORMER "Angstfabrikk"
    INDEX 00 60:56:53
    INDEX 01 60:59:53
Код:
[url=https://fastpic.ru/view/13/2010/1218/7a6abcc715c537c0358e8cee1c6190f3.jpg.html][img]http://i13.fastpic.ru/thumb/2010/1218/f3/7a6abcc715c537c0358e8cee1c6190f3.jpeg[/img][/url]
ОГРОМНАЯ БЛАГОДАРНОСТЬ НАШЕМУ КОЛЛЕГЕ KERGARN`у ЗА СКАНЫ!!!
Правила, инструкции, FAQ!!!
Торрент  Добавлен [26 июн 2020, 17:04] Скачать торрент Магнет ссылка
Скачать торрент
[ Размер 19.99 КБ / Просмотров 11 ]

Статус
Проверен 
 
Размер  481.55 МБ
Приватный: Нет (DHT включён)
.torrent скачан  0
 


     Отправить личное сообщение
   
Страница 1 из 1
Показать сообщения за:  Поле сортировки  
Начать новую тему Ответить на тему


Сейчас этот форум просматривают: нет зарегистрированных пользователей и гости: 0


Вы не можете начинать темы
Вы не можете отвечать на сообщения
Вы не можете редактировать свои сообщения
Вы не можете удалять свои сообщения
Вы не можете добавлять вложения

Перейти:  
cron