Начать новую тему Ответить на тему
Статистика раздачи
Размер: 356.75 МБ | Добавлен: 26 июн 2020, 17:39 | Скачали: 0
Сидеров: 0  [0 байт/сек]    Личеров: 0  [0 байт/сек]
Пред. тема | След. тема 

Автор
Сообщение

СообщениеДобавлено: 26 июн 2020, 17:39 

Ответить с цитатой 

Wave Workers Foundation / In the Whirlpool
Жанр: ebm, ambient
Носитель: CD
Страна-производитель диска: US
Год издания: 1999
Издатель (лейбл): Pendragon Records (US)
Номер по каталогу: PEN123
Аудиокодек: FLAC (*.flac)
Тип рипа: tracks+.cue
Битрейт аудио: lossless
Продолжительность: 00:55:18
Источник (релизер): what.cd
Наличие сканов в содержимом раздачи: нет
Треклист:
01. Undrugged [05:58]
02. Bellows Grin [04:23]
03. In the Whirlpool [06:34]
04. Earmark Tattoo [03:40]
05. Now [02:44]
06. Wotow [05:31]
07. Ice Age [06:13]
08. Elia & Mary [02:45]
09. Metal Hail [03:34]
10. Work on Fine (p1) [02:54]
11. Work on Fine (p2) [02:03]
12. In the Whirlpool (Left-Right remix) [06:10]
13. Dissected [02:42]
Код:
Exact Audio Copy V1.0 beta 3 from 29. August 2011
EAC extraction logfile from 8. December 2012, 22:19
Wave Workers Foundation / In the Whirlpool
Used drive  : ATAPI   iHAS124   C   Adapter: 2  ID: 1
Read mode               : Secure
Utilize accurate stream : Yes
Defeat audio cache      : Yes
Make use of C2 pointers : No
Read offset correction                      : 6
Overread into Lead-In and Lead-Out          : No
Fill up missing offset samples with silence : Yes
Delete leading and trailing silent blocks   : No
Null samples used in CRC calculations       : Yes
Used interface                              : Native Win32 interface for Win NT & 2000
Gap handling                                : Appended to previous track
Used output format              : User Defined Encoder
Selected bitrate                : 1024 kBit/s
Quality                         : High
Add ID3 tag                     : No
Command line compressor         : C:\Program Files (x86)\FLAC\flac.exe
Additional command line options : -8 -V -T "ARTIST=%artist%" -T "TITLE=%title%" -T "ALBUM=%albumtitle%" -T "DATE=%year%" -T "TRACKNUMBER=%tracknr%" -T "GENRE=%genre%" -T "PERFORMER=%albuminterpret%" -T "COMPOSER=%composer%" %haslyrics%--tag-from-file=LYRICS="%lyricsfile%"%haslyrics% -T "ALBUMARTIST=%albumartist%" -T "DISCNUMBER=%cdnumber%" -T "TOTALDISCS=%totalcds%" -T "TOTALTRACKS=%numtracks%" -T "COMMENT=%comment%" %source% -o %dest%
TOC of the extracted CD
     Track |   Start  |  Length  | Start sector | End sector
    ---------------------------------------------------------
        1  |  0:00.00 |  5:58.10 |         0    |    26859
        2  |  5:58.10 |  4:23.62 |     26860    |    46646
        3  | 10:21.72 |  6:34.33 |     46647    |    76229
        4  | 16:56.30 |  3:40.51 |     76230    |    92780
        5  | 20:37.06 |  2:44.55 |     92781    |   105135
        6  | 23:21.61 |  5:32.00 |    105136    |   130035
        7  | 28:53.61 |  6:13.52 |    130036    |   158062
        8  | 35:07.38 |  2:45.66 |    158063    |   170503
        9  | 37:53.29 |  3:34.40 |    170504    |   186593
       10  | 41:27.69 |  2:54.50 |    186594    |   199693
       11  | 44:22.44 |  2:03.13 |    199694    |   208931
       12  | 46:25.57 |  6:10.32 |    208932    |   236713
       13  | 52:36.14 |  2:42.20 |    236714    |   248883
Track  1
     Filename E:\FLAC\Wave Workers Foundation - 1999 - In the Whirlpool [FLAC]\01 - Undrugged.wav
     Pre-gap length  0:00:02.00
     Peak level 99.8 %
     Extraction speed 5.5 X
     Track quality 100.0 %
     Test CRC 0BF4C9F8
     Copy CRC 0BF4C9F8
     Cannot be verified as accurate (confidence 6)  [3F645A2E], AccurateRip returned [E10A3AC0]  (AR v2)
     Copy OK
Track  2
     Filename E:\FLAC\Wave Workers Foundation - 1999 - In the Whirlpool [FLAC]\02 - Bellows Grin.wav
     Peak level 96.6 %
     Extraction speed 6.1 X
     Track quality 100.0 %
     Test CRC 91FBFC45
     Copy CRC 91FBFC45
     Cannot be verified as accurate (confidence 6)  [35D6608F], AccurateRip returned [3268C9B6]  (AR v2)
     Copy OK
Track  3
     Filename E:\FLAC\Wave Workers Foundation - 1999 - In the Whirlpool [FLAC]\03 - In the Whirlpool.wav
     Peak level 99.6 %
     Extraction speed 7.0 X
     Track quality 100.0 %
     Test CRC 5E566A40
     Copy CRC 5E566A40
     Cannot be verified as accurate (confidence 5)  [94BBEBE0], AccurateRip returned [2D5F6AFB]  (AR v2)
     Copy OK
Track  4
     Filename E:\FLAC\Wave Workers Foundation - 1999 - In the Whirlpool [FLAC]\04 - Earmark Tattoo.wav
     Peak level 96.6 %
     Extraction speed 7.1 X
     Track quality 100.0 %
     Test CRC 35B26974
     Copy CRC 35B26974
     Cannot be verified as accurate (confidence 6)  [CB0F9A2F], AccurateRip returned [3133CEC9]  (AR v2)
     Copy OK
Track  5
     Filename E:\FLAC\Wave Workers Foundation - 1999 - In the Whirlpool [FLAC]\05 - Now.wav
     Pre-gap length  0:00:00.98
     Peak level 96.6 %
     Extraction speed 7.1 X
     Track quality 100.0 %
     Test CRC 4298A33C
     Copy CRC 4298A33C
     Cannot be verified as accurate (confidence 6)  [DF7C22B8], AccurateRip returned [A5EDADF7]  (AR v2)
     Copy OK
Track  6
     Filename E:\FLAC\Wave Workers Foundation - 1999 - In the Whirlpool [FLAC]\06 - Wotow.wav
     Peak level 96.6 %
     Extraction speed 7.2 X
     Track quality 99.9 %
     Test CRC 41B0937B
     Copy CRC 41B0937B
     Cannot be verified as accurate (confidence 6)  [1345EE32], AccurateRip returned [AAFB3544]  (AR v2)
     Copy OK
Track  7
     Filename E:\FLAC\Wave Workers Foundation - 1999 - In the Whirlpool [FLAC]\07 - Ice Age.wav
     Peak level 96.6 %
     Extraction speed 8.9 X
     Track quality 100.0 %
     Test CRC D78B0E41
     Copy CRC D78B0E41
     Cannot be verified as accurate (confidence 6)  [A20BC9E4], AccurateRip returned [3D5E82F1]  (AR v2)
     Copy OK
Track  8
     Filename E:\FLAC\Wave Workers Foundation - 1999 - In the Whirlpool [FLAC]\08 - Elia & Mary.wav
     Peak level 96.6 %
     Extraction speed 8.4 X
     Track quality 100.0 %
     Test CRC EA4FA94B
     Copy CRC EA4FA94B
     Cannot be verified as accurate (confidence 6)  [135F59C1], AccurateRip returned [B68E177D]  (AR v2)
     Copy OK
Track  9
     Filename E:\FLAC\Wave Workers Foundation - 1999 - In the Whirlpool [FLAC]\09 - Metal Hail.wav
     Peak level 96.6 %
     Extraction speed 9.0 X
     Track quality 100.0 %
     Test CRC 202F73E1
     Copy CRC 202F73E1
     Cannot be verified as accurate (confidence 6)  [94736731], AccurateRip returned [8C9A2503]  (AR v2)
     Copy OK
Track 10
     Filename E:\FLAC\Wave Workers Foundation - 1999 - In the Whirlpool [FLAC]\10 - Work on Fine (p1).wav
     Peak level 96.6 %
     Extraction speed 8.9 X
     Track quality 100.0 %
     Test CRC 9E30FCB9
     Copy CRC 9E30FCB9
     Cannot be verified as accurate (confidence 6)  [D5FB6BC8], AccurateRip returned [1B4A00B3]  (AR v2)
     Copy OK
Track 11
     Filename E:\FLAC\Wave Workers Foundation - 1999 - In the Whirlpool [FLAC]\11 - Work on Fine (p2).wav
     Peak level 96.6 %
     Extraction speed 6.2 X
     Track quality 99.9 %
     Test CRC EE664942
     Copy CRC EE664942
     Cannot be verified as accurate (confidence 6)  [B4D73247], AccurateRip returned [8F6A5141]  (AR v2)
     Copy OK
Track 12
     Filename E:\FLAC\Wave Workers Foundation - 1999 - In the Whirlpool [FLAC]\12 - In the Whirlpool (Left-Right remix).wav
     Pre-gap length  0:00:00.86
     Peak level 96.6 %
     Extraction speed 10.4 X
     Track quality 100.0 %
     Test CRC 45D72914
     Copy CRC 45D72914
     Cannot be verified as accurate (confidence 5)  [8D9BFA07], AccurateRip returned [39D40228]  (AR v2)
     Copy OK
Track 13
     Filename E:\FLAC\Wave Workers Foundation - 1999 - In the Whirlpool [FLAC]\13 - Dissected.wav
     Peak level 93.3 %
     Extraction speed 9.5 X
     Track quality 100.0 %
     Test CRC 78D54B34
     Copy CRC 78D54B34
     Cannot be verified as accurate (confidence 6)  [B5F95D61], AccurateRip returned [CF67CE72]  (AR v2)
     Copy OK
No tracks could be verified as accurate
You may have a different pressing from the one(s) in the database
No errors occurred
End of status report
---- CUETools DB Plugin V2.1.3
[CTDB TOCID: VTohhZnwpBqb_B9ZUEz_5gP.9Lo-] found, Submit result: VTohhZnwpBqb_B9ZUEz_5gP.9Lo- has been submitted
[7c99a838] (9/9) No match
==== Log checksum 3BA75B0366AE0C2A0DDA9B2856631F7A2FF7F06C47AAE43FC44F0CE5EE6CA92E ====
Код:
REM GENRE Electronic
REM DATE 1999
REM DISCID B50CF60D
REM COMMENT "ExactAudioCopy v1.0b3"
CATALOG 0000000000000
PERFORMER "Wave Workers Foundation"
TITLE "In the Whirlpool"
FILE "01 - Undrugged.wav" WAVE
  TRACK 01 AUDIO
    TITLE "Undrugged"
    PERFORMER "Wave Workers Foundation"
    FLAGS DCP
    INDEX 01 00:00:00
FILE "02 - Bellows Grin.wav" WAVE
  TRACK 02 AUDIO
    TITLE "Bellows Grin"
    PERFORMER "Wave Workers Foundation"
    FLAGS DCP
    INDEX 01 00:00:00
FILE "03 - In the Whirlpool.wav" WAVE
  TRACK 03 AUDIO
    TITLE "In the Whirlpool"
    PERFORMER "Wave Workers Foundation"
    FLAGS DCP
    INDEX 01 00:00:00
FILE "04 - Earmark Tattoo.wav" WAVE
  TRACK 04 AUDIO
    TITLE "Earmark Tattoo"
    PERFORMER "Wave Workers Foundation"
    FLAGS DCP
    INDEX 01 00:00:00
  TRACK 05 AUDIO
    TITLE "Now"
    PERFORMER "Wave Workers Foundation"
    FLAGS DCP
    INDEX 00 03:39:52
FILE "05 - Now.wav" WAVE
    INDEX 01 00:00:00
FILE "06 - Wotow.wav" WAVE
  TRACK 06 AUDIO
    TITLE "Wotow"
    PERFORMER "Wave Workers Foundation"
    FLAGS DCP
    INDEX 01 00:00:00
FILE "07 - Ice Age.wav" WAVE
  TRACK 07 AUDIO
    TITLE "Ice Age"
    PERFORMER "Wave Workers Foundation"
    FLAGS DCP
    INDEX 01 00:00:00
FILE "08 - Elia & Mary.wav" WAVE
  TRACK 08 AUDIO
    TITLE "Elia & Mary"
    PERFORMER "Wave Workers Foundation"
    FLAGS DCP
    INDEX 01 00:00:00
FILE "09 - Metal Hail.wav" WAVE
  TRACK 09 AUDIO
    TITLE "Metal Hail"
    PERFORMER "Wave Workers Foundation"
    FLAGS DCP
    INDEX 01 00:00:00
FILE "10 - Work on Fine (p1).wav" WAVE
  TRACK 10 AUDIO
    TITLE "Work on Fine (p1)"
    PERFORMER "Wave Workers Foundation"
    FLAGS DCP
    INDEX 01 00:00:00
FILE "11 - Work on Fine (p2).wav" WAVE
  TRACK 11 AUDIO
    TITLE "Work on Fine (p2)"
    PERFORMER "Wave Workers Foundation"
    FLAGS DCP
    INDEX 01 00:00:00
  TRACK 12 AUDIO
    TITLE "In the Whirlpool (Left-Right remix)"
    PERFORMER "Wave Workers Foundation"
    FLAGS DCP
    INDEX 00 02:02:23
FILE "12 - In the Whirlpool (Left-Right remix).wav" WAVE
    INDEX 01 00:00:00
FILE "13 - Dissected.wav" WAVE
  TRACK 13 AUDIO
    TITLE "Dissected"
    PERFORMER "Wave Workers Foundation"
    FLAGS DCP
    INDEX 01 00:00:00

Доп. информация: последний трек вы могли слышать на канале doomed радио soma.fm - если он вам понравился, можете ознакомиться с моей раздачей музыки с этого канала.Цитата:
Цитата:
дорогие ценители lossless, если вам понравилась музыка которую я выложил - пожалуйста, сидируйте её настолько долго насколько это возможно. от lossless-раздач на диске я избавляюсь в первую очередь, т.к. они занимают неоправданно много места, а разницу между 320 kbps и lossless я заметить неспособен, т.к. у меня для этого нет соответствующих наушников и колонок.
[/spoiler]
Правила, инструкции, FAQ!!!
Торрент  Добавлен [26 июн 2020, 17:39] Скачать торрент Магнет ссылка
Скачать торрент
[ Размер 29.28 КБ / Просмотров 12 ]

Статус
Проверен 
 
Размер  356.75 МБ
Приватный: Нет (DHT включён)
.torrent скачан  0
 


     Отправить личное сообщение
   
Страница 1 из 1
Показать сообщения за:  Поле сортировки  
Начать новую тему Ответить на тему


Сейчас этот форум просматривают: нет зарегистрированных пользователей и гости: 0


Вы не можете начинать темы
Вы не можете отвечать на сообщения
Вы не можете редактировать свои сообщения
Вы не можете удалять свои сообщения
Вы не можете добавлять вложения

Перейти:  
cron