Начать новую тему Ответить на тему
Статистика раздачи
Размер: 503.02 МБ | Добавлен: 26 июн 2020, 20:05 | Скачали: 0
Сидеров: 0  [0 байт/сек]    Личеров: 0  [0 байт/сек]
Пред. тема | След. тема 

Автор
Сообщение

СообщениеДобавлено: 26 июн 2020, 20:05 

Ответить с цитатой 

Patenbrigade: Wolff / Demokratischer Sektor (Limited Metal Box)
Жанр: EBM, Ambient
Страна-производитель диска: Germany
Год издания диска: 2008
Издатель (лейбл): Zweieck
Номер по каталогу: ZWE009
Страна: Germany
Аудио кодек: FLAC (*.flac)
Тип рипа: image+.cue
Битрейт аудио: lossless
Продолжительность: 74:32
Источник (релизер): Audio CD
Наличие сканов в содержимом раздачи: да
Треклист:
01. Maurerradio (Extended Version)
02. Sendersuche 1
03. Stalinallee
04. Sendersuche 2
05. Demokratischer Sektor (Blutfuss Club Remix)
06. Schusswechsel
07. Die Rote Fahne Fallt
08. Ostberliner Bauarbeiter (Rohbau Remix By Kiew)
09. Demokratischer Sektor (Pvd Club Remix)
10. Turmdrehkran (Extended Version)
11. Maurerradio (Old School Retro Club Mix)
12. Mit Jedem Sender Informationen
13. Turmdrehkran (Remix By Absurd Minds)
14. Turmdrehkran (Pvd Club Remix)
15. Ostberliner Bauarbeiter (Club Mix)
16. Gefahrstoffe Feat. Sarah Noxx
17. Krantransport Feat. Sarah Noxx
18. Schadenshoehe Unbekannt
19. Karl-Eduard Von Schnitzler
20. Maurerradio (Remix By Leserotique)
Код:
Exact Audio Copy V0.99 prebeta 5 from 4. May 2009
Отчёт EAC об извлечении, выполненном 24. марта 2011, 19:37
Patenbrigade:Wolff / Demokratischer Sektor
Дисковод: _NEC    DVD_RW ND-4550A   Adapter: 0  ID: 2
Режим чтения                 : Достоверность
Использование точного потока : Да
Отключение кэша аудио        : Да
Использование указателей C2  : Нет
Коррекция смещения при чтении                     : 48
Способность читать области Lead-in и Lead-out     : Нет
Заполнение пропущенных сэмплов тишиной            : Да
Удаление блоков с тишиной в начале и конце        : Нет
При вычислениях CRC использовались нулевые сэмплы : Да
Интерфейс                                         : Встроенный Win32-интерфейс для Win NT/2000
Выходной формат : Внутренние WAV-операции
Формат сэмплов  : 44.100 Гц; 16 бит; стерео
TOC извлечённого CD
     Трек |   Старт  | Длительность | Начальный сектор | Конечный сектор
    ---------------------------------------------------------------------
       1  |  0:00.00 |    5:08.69   |           0      |      23168
       2  |  5:08.69 |    0:35.53   |       23169      |      25846
       3  |  5:44.47 |    3:32.26   |       25847      |      41772
       4  |  9:16.73 |    1:25.01   |       41773      |      48148
       5  | 10:41.74 |    3:53.71   |       48149      |      65694
       6  | 14:35.70 |    2:27.66   |       65695      |      76785
       7  | 17:03.61 |    1:17.17   |       76786      |      82577
       8  | 18:21.03 |    4:09.23   |       82578      |     101275
       9  | 22:30.26 |    4:53.71   |      101276      |     123321
      10  | 27:24.22 |    3:29.63   |      123322      |     139059
      11  | 30:54.10 |    3:32.18   |      139060      |     154977
      12  | 34:26.28 |    5:26.50   |      154978      |     179477
      13  | 39:53.03 |    3:22.63   |      179478      |     194690
      14  | 43:15.66 |    5:30.11   |      194691      |     219451
      15  | 48:46.02 |    5:12.58   |      219452      |     242909
      16  | 53:58.60 |    2:51.65   |      242910      |     255799
      17  | 56:50.50 |    5:12.74   |      255800      |     279273
      18  | 62:03.49 |    4:34.42   |      279274      |     299865
      19  | 66:38.16 |    3:40.23   |      299866      |     316388
      20  | 70:18.39 |    4:12.67   |      316389      |     335355
Характеристики диапазона извлечения и сообщения об ошибках
Выбранный диапазон
     Имя файла D:\Music\Patenbrigade Wolff - Demokratischer Sektor (Ltd)\Patenbrigade Wolff - Demokratischer Sektor.wav
     Пиковый уровень 95.5 %
     Качество диапазона 99.9 %
     CRC теста 6EC24B77
     CRC копии 6EC24B77
     Копирование... OK
Ошибок не произошло
AccurateRip: сводка
Трек  1  точное извлечение (доверие 6)  [9DC2A3E9]
Трек  2  точное извлечение (доверие 6)  [944785F1]
Трек  3  точное извлечение (доверие 6)  [49699CC5]
Трек  4  точное извлечение (доверие 6)  [2277E512]
Трек  5  точное извлечение (доверие 6)  [F2BFEAC6]
Трек  6  точное извлечение (доверие 6)  [65813FC4]
Трек  7  точное извлечение (доверие 6)  [A5A920D5]
Трек  8  точное извлечение (доверие 6)  [5B1E01BC]
Трек  9  точное извлечение (доверие 6)  [49885AE5]
Трек 10  точное извлечение (доверие 6)  [6D6E868C]
Трек 11  точное извлечение (доверие 6)  [5E659D2A]
Трек 12  точное извлечение (доверие 5)  [91946026]
Трек 13  точное извлечение (доверие 6)  [A9FBC77D]
Трек 14  точное извлечение (доверие 6)  [7C043F17]
Трек 15  точное извлечение (доверие 6)  [1652B8E1]
Трек 16  точное извлечение (доверие 5)  [EEEA9823]
Трек 17  точное извлечение (доверие 6)  [F486E921]
Трек 18  точное извлечение (доверие 5)  [23AE9923]
Трек 19  точное извлечение (доверие 6)  [9844F8EF]
Трек 20  точное извлечение (доверие 4)  [C9ACED6F]
Все треки извлечены точно
Конец отчёта
Код:
REM GENRE Industrial
REM DATE 2008
REM DISCID 05117714
REM COMMENT "ExactAudioCopy v0.99pb5"
PERFORMER "Patenbrigade:Wolff"
TITLE "Demokratischer Sektor"
FILE "Patenbrigade Wolff - Demokratischer Sektor.wav" WAVE
  TRACK 01 AUDIO
    TITLE "Maurerradio (Extended Version)"
    PERFORMER "Patenbrigade:Wolff"
    INDEX 01 00:00:00
  TRACK 02 AUDIO
    TITLE "Sendersuche 1"
    PERFORMER "Patenbrigade:Wolff"
    INDEX 00 05:06:69
    INDEX 01 05:08:69
  TRACK 03 AUDIO
    TITLE "Stalinallee"
    PERFORMER "Patenbrigade:Wolff"
    INDEX 00 05:42:47
    INDEX 01 05:44:47
  TRACK 04 AUDIO
    TITLE "Sendersuche 2"
    PERFORMER "Patenbrigade:Wolff"
    INDEX 00 09:14:73
    INDEX 01 09:16:73
  TRACK 05 AUDIO
    TITLE "Demokratischer Sektor (Blutfuss Club Remix)"
    PERFORMER "Patenbrigade:Wolff"
    INDEX 00 10:39:74
    INDEX 01 10:41:74
  TRACK 06 AUDIO
    TITLE "Schusswechsel"
    PERFORMER "Patenbrigade:Wolff"
    INDEX 00 14:26:50
    INDEX 01 14:35:70
  TRACK 07 AUDIO
    TITLE "Die Rote Fahne Fдllt"
    PERFORMER "Patenbrigade:Wolff"
    INDEX 00 17:01:61
    INDEX 01 17:03:61
  TRACK 08 AUDIO
    TITLE "Ostberliner Bauarbeiter (Rohbau Remix By KiEw)"
    PERFORMER "Patenbrigade:Wolff"
    INDEX 00 18:19:03
    INDEX 01 18:21:03
  TRACK 09 AUDIO
    TITLE "Demokratischer Sektor (PvD Club Remix)"
    PERFORMER "Patenbrigade:Wolff"
    INDEX 00 22:23:04
    INDEX 01 22:30:26
  TRACK 10 AUDIO
    TITLE "Turmdrehkran (Extended Version)"
    PERFORMER "Patenbrigade:Wolff"
    INDEX 00 27:13:09
    INDEX 01 27:24:22
  TRACK 11 AUDIO
    TITLE "Maurerradio (Old School Retro Club Mix)"
    PERFORMER "Patenbrigade:Wolff"
    INDEX 00 30:45:22
    INDEX 01 30:54:10
  TRACK 12 AUDIO
    TITLE "Mit Jedem Sender Informationen"
    PERFORMER "Patenbrigade:Wolff"
    INDEX 00 34:24:16
    INDEX 01 34:26:28
  TRACK 13 AUDIO
    TITLE "Turmdrehkran (Remix By Absurd Minds)"
    PERFORMER "Patenbrigade:Wolff"
    INDEX 00 39:51:03
    INDEX 01 39:53:03
  TRACK 14 AUDIO
    TITLE "Turmdrehkran (PvD Club Remix)"
    PERFORMER "Patenbrigade:Wolff"
    INDEX 00 43:13:52
    INDEX 01 43:15:66
  TRACK 15 AUDIO
    TITLE "Ostberliner Bauarbeiter (Club Mix)"
    PERFORMER "Patenbrigade:Wolff"
    INDEX 00 48:39:73
    INDEX 01 48:46:02
  TRACK 16 AUDIO
    TITLE "Gefahrstoffe (Feat. Sarah Noxx) (Hocinoizeflug Club Mix)"
    PERFORMER "Patenbrigade:Wolff"
    INDEX 00 53:41:43
    INDEX 01 53:58:60
  TRACK 17 AUDIO
    TITLE "Krantransport (Feat. Sarah Noxx)"
    PERFORMER "Patenbrigade:Wolff"
    INDEX 00 56:48:50
    INDEX 01 56:50:50
  TRACK 18 AUDIO
    TITLE "Schadenshoehe Unbekannt"
    PERFORMER "Patenbrigade:Wolff"
    INDEX 00 62:01:49
    INDEX 01 62:03:49
  TRACK 19 AUDIO
    TITLE "Karl-Eduard Von Schnitzler"
    PERFORMER "Patenbrigade:Wolff"
    INDEX 00 66:36:16
    INDEX 01 66:38:16
  TRACK 20 AUDIO
    TITLE "Maurerradio (Remix By Leserotique)"
    PERFORMER "Patenbrigade:Wolff"
    INDEX 01 70:18:39
Код:
Started at: четверг, 24. 03. 2011. - 19:38.04
1 file found
1 -===- D:\Music\Patenbrigade Wolff - Demokratischer Sektor (Ltd)\Patenbrigade Wolff - Demokratischer Sektor.wav
  Conclusion: this track is CDDA with probability 100%
Finished at: четверг, 24. 03. 2011. - 19:46.04 (operation time: 0:08.00)
Правила, инструкции, FAQ!!!
Торрент  Добавлен [26 июн 2020, 20:05] Скачать торрент Магнет ссылка
Скачать торрент
[ Размер 20.71 КБ / Просмотров 4 ]

Статус
Проверен 
 
Размер  503.02 МБ
Приватный: Нет (DHT включён)
.torrent скачан  0
 


     Отправить личное сообщение
   
Страница 1 из 1
Показать сообщения за:  Поле сортировки  
Начать новую тему Ответить на тему


Сейчас этот форум просматривают: нет зарегистрированных пользователей и гости: 0


Вы не можете начинать темы
Вы не можете отвечать на сообщения
Вы не можете редактировать свои сообщения
Вы не можете удалять свои сообщения
Вы не можете добавлять вложения

Перейти:  
cron