Начать новую тему Ответить на тему
Статистика раздачи
Размер: 340.77 МБ | Добавлен: 26 июн 2020, 18:55 | Скачали: 0
Сидеров: 0  [0 байт/сек]    Личеров: 0  [0 байт/сек]
Пред. тема | След. тема 

Автор
Сообщение

СообщениеДобавлено: 26 июн 2020, 18:55 

Ответить с цитатой 

Aircrash Bureau / Exhibition
Жанр: EBM
Страна-производитель диска: Germany
Год издания диска: 2011
Издатель (лейбл): Infacted Recordings
Номер по каталогу: FACT 3167
Страна: Germany
Аудиокодек: FLAC (*.flac)
Тип рипа: image+.cue
Битрейт аудио: lossless
Продолжительность: 0:49:45.00
Источник (релизер): CD из личной коллекции.
Наличие сканов в содержимом раздачи: да
Треклист:
01. Machine 4:41
02. Machine (Broom 35 Remix) 4:22
03. Mit Voller Kraft V.2.1 5:12
04. Exhibition 4:43
05. On Patrol V.3. 3:46
06. Funktionsraum 2:02
07. Time To Die 5:20
08. Machine (Autodafeh Remix) 4:34
09. Mit Voller Kraft (Wave"80 Mix) 4:14
10. Exhibition (A.B. Remix) 7:01
11. 120 BPM 3:50
Discogs
Код:
Exact Audio Copy V0.99 prebeta 5 from 4. May 2009
Отчёт EAC об извлечении, выполненном 31. октября 2011, 8:51
Aircrash Bureau / Exhibition
Дисковод: TSSTcorpCDDVDW TS-L632H   Adapter: 0  ID: 0
Режим чтения                 : Достоверность
Использование точного потока : Да
Отключение кэша аудио        : Да
Использование указателей C2  : Нет
Коррекция смещения при чтении                     : 6
Способность читать области Lead-in и Lead-out     : Нет
Заполнение пропущенных сэмплов тишиной            : Да
Удаление блоков с тишиной в начале и конце        : Нет
При вычислениях CRC использовались нулевые сэмплы : Да
Интерфейс                                         : Встроенный Win32-интерфейс для Win NT/2000
Выходной формат          : Пользовательский кодировщик
Выбранный битрейт        : 1024 kBit/s
Качество                 : Высокий
Добавление ID3-тэга      : Нет
Утилита сжатия           : C:\Program Files\Exact Audio Copy\FLAC\FLAC.EXE
Дополнительные параметры : -6 -V -T "ARTIST=%a" -T "TITLE=%t" -T "ALBUM=%g" -T "DATE=%y" -T "TRACKNUMBER=%n" -T "GENRE=%m" -T "COMMENT=%e" %s -o %d
TOC извлечённого CD
     Трек |   Старт  | Длительность | Начальный сектор | Конечный сектор
    ---------------------------------------------------------------------
       1  |  0:00.00 |    4:41.18   |           0      |      21092
       2  |  4:41.18 |    4:21.65   |       21093      |      40732
       3  |  9:03.08 |    5:12.28   |       40733      |      64160
       4  | 14:15.36 |    4:43.03   |       64161      |      85388
       5  | 18:58.39 |    3:45.39   |       85389      |     102302
       6  | 22:44.03 |    2:02.34   |      102303      |     111486
       7  | 24:46.37 |    5:19.65   |      111487      |     135476
       8  | 30:06.27 |    4:34.01   |      135477      |     156027
       9  | 34:40.28 |    4:13.51   |      156028      |     175053
      10  | 38:54.04 |    7:01.13   |      175054      |     206641
      11  | 45:55.17 |    3:49.58   |      206642      |     223874
Характеристики диапазона извлечения и сообщения об ошибках
Выбранный диапазон
     Имя файла C:\Users\Алексей\Desktop\iPOD\Aircrash Bureau - Exhibition.wav
     Пиковый уровень 100.0 %
     Качество диапазона 100.0 %
     CRC теста 1CC34D56
     CRC копии 1CC34D56
     Копирование... OK
Ошибок не произошло
AccurateRip: сводка
Трек  1  точное извлечение (доверие 1)  [B2B0A12E]
Трек  2  точное извлечение (доверие 1)  [03C7CE25]
Трек  3  точное извлечение (доверие 1)  [F55529C7]
Трек  4  точное извлечение (доверие 1)  [34BE1FC3]
Трек  5  точное извлечение (доверие 1)  [B3FC82F8]
Трек  6  точное извлечение (доверие 1)  [99722CCC]
Трек  7  точное извлечение (доверие 1)  [61196946]
Трек  8  точное извлечение (доверие 1)  [41C18A11]
Трек  9  точное извлечение (доверие 1)  [55116CCF]
Трек 10  точное извлечение (доверие 1)  [F63735E8]
Трек 11  точное извлечение (доверие 1)  [007D0FEB]
Все треки извлечены точно
Конец отчёта
Код:
REM GENRE EBM
REM DATE 2011
REM DISCID 9C0BA90B
REM COMMENT "ExactAudioCopy v0.99pb5"
PERFORMER "Aircrash Bureau"
TITLE "Exhibition "
FILE "Aircrash Bureau - Exhibition.flac" WAVE
  TRACK 01 AUDIO
    TITLE "Machine"
    PERFORMER "Aircrash Bureau"
    INDEX 01 00:00:00
  TRACK 02 AUDIO
    TITLE "Machine (Brom 35 Remix)"
    PERFORMER "Aircrash Bureau"
    INDEX 00 04:39:18
    INDEX 01 04:41:18
  TRACK 03 AUDIO
    TITLE "Mit Voller Kraft v.2.1"
    PERFORMER "Aircrash Bureau"
    INDEX 00 09:01:08
    INDEX 01 09:03:08
  TRACK 04 AUDIO
    TITLE "Exhibition"
    PERFORMER "Aircrash Bureau"
    INDEX 00 14:13:36
    INDEX 01 14:15:36
  TRACK 05 AUDIO
    TITLE "On Patrol v.3."
    PERFORMER "Aircrash Bureau"
    INDEX 00 18:56:39
    INDEX 01 18:58:39
  TRACK 06 AUDIO
    TITLE "Funktionsraum"
    PERFORMER "Aircrash Bureau"
    INDEX 00 22:42:03
    INDEX 01 22:44:03
  TRACK 07 AUDIO
    TITLE "Time To Die"
    PERFORMER "Aircrash Bureau"
    INDEX 00 24:44:37
    INDEX 01 24:46:37
  TRACK 08 AUDIO
    TITLE "Machine (Autodafeh Remix)"
    PERFORMER "Aircrash Bureau"
    INDEX 00 30:04:27
    INDEX 01 30:06:27
  TRACK 09 AUDIO
    TITLE "Mit Voller Kraft (Wave'80 Mix)"
    PERFORMER "Aircrash Bureau"
    INDEX 00 34:38:28
    INDEX 01 34:40:28
  TRACK 10 AUDIO
    TITLE "Exhibition (A.B. Remix)"
    PERFORMER "Aircrash Bureau"
    INDEX 00 38:52:04
    INDEX 01 38:54:04
  TRACK 11 AUDIO
    TITLE "120 BPM"
    PERFORMER "Aircrash Bureau"
    INDEX 00 45:53:17
    INDEX 01 45:55:17
Код:
[url=https://fastpic.ru/view/31/2011/1204/92255f7f6ae0006054e0ebced1639f6c.jpg.html][img]http://i31.fastpic.ru/thumb/2011/1204/6c/92255f7f6ae0006054e0ebced1639f6c.jpeg[/img][/url][url=https://fastpic.ru/view/31/2011/1204/2031687337cdf5d169346e91668488bf.jpg.html][img]http://i31.fastpic.ru/thumb/2011/1204/bf/2031687337cdf5d169346e91668488bf.jpeg[/img][/url][url=https://fastpic.ru/view/31/2011/1204/6c91c8de9a9e8396cfad83ce0d88c0ba.jpg.html][img]http://i31.fastpic.ru/thumb/2011/1204/ba/6c91c8de9a9e8396cfad83ce0d88c0ba.jpeg[/img][/url][url=https://fastpic.ru/view/28/2011/1204/eb6d124fa05636a32caccfe51352d206.jpg.html][img]http://i28.fastpic.ru/thumb/2011/1204/06/eb6d124fa05636a32caccfe51352d206.jpeg[/img][/url]
Выражаю благодарность kergarn`у за HQ scans!
Правила, инструкции, FAQ!!!
Торрент  Добавлен [26 июн 2020, 18:55] Скачать торрент Магнет ссылка
Скачать торрент
[ Размер 14.47 КБ / Просмотров 9 ]

Статус
Проверен 
 
Размер  340.77 МБ
Приватный: Нет (DHT включён)
.torrent скачан  0
 


     Отправить личное сообщение
   
Страница 1 из 1
Показать сообщения за:  Поле сортировки  
Начать новую тему Ответить на тему


Сейчас этот форум просматривают: нет зарегистрированных пользователей и гости: 0


Вы не можете начинать темы
Вы не можете отвечать на сообщения
Вы не можете редактировать свои сообщения
Вы не можете удалять свои сообщения
Вы не можете добавлять вложения

Перейти:  
cron