Начать новую тему Ответить на тему
Статистика раздачи
Размер: 130.3 МБ | Добавлен: 26 июн 2020, 21:08 | Скачали: 0
Сидеров: 0  [0 байт/сек]    Личеров: 0  [0 байт/сек]
Пред. тема | След. тема 

Автор
Сообщение

СообщениеДобавлено: 26 июн 2020, 21:08 

Ответить с цитатой 

PAKT. - Freiheit
Жанр: EBM, Aggrotech
Страна-производитель диска: Germany
Год издания диска: 2011
Издатель (лейбл): Out Of Line
Номер по каталогу: OUT 504
Страна: Germany
Аудиокодек: FLAC (*.flac)
Тип рипа: image+.cue
Битрейт аудио: lossless
Продолжительность: 18:24
Источник (релизер): Maxi-Single (digipak) (собственный CD)
Наличие сканов в содержимом раздачи: нет
Треклист:
1. Freiheit
2. Angriff
3. Freiheit (Robert Goerl Remix by Robert Goerl of DAF)
4. Freiheit (Gummi-Drum-Remix by G.Thomas of Funker Vogt)
5. Freiheit (Freiheit und Gerechtigkeit Rework by Formalin)
Код:
Exact Audio Copy V0.99 prebeta 5 from 4. May 2009
Отчёт EAC об извлечении, выполненном 24. сентября 2011, 22:13
Pakt / Freiheit
Дисковод: HL-DT-STDVDRAM GT10N   Adapter: 3  ID: 0
Режим чтения                 : Достоверность
Использование точного потока : Да
Отключение кэша аудио        : Да
Использование указателей C2  : Нет
Коррекция смещения при чтении                     : 102
Способность читать области Lead-in и Lead-out     : Нет
Заполнение пропущенных сэмплов тишиной            : Да
Удаление блоков с тишиной в начале и конце        : Нет
При вычислениях CRC использовались нулевые сэмплы : Да
Интерфейс                                         : Встроенный Win32-интерфейс для Win NT/2000
Выходной формат          : Пользовательский кодировщик
Выбранный битрейт        : 1024 kBit/s
Качество                 : Высокий
Добавление ID3-тэга      : Нет
Утилита сжатия           : C:\Program Files\Exact Audio Copy\Flac\flac.exe
Дополнительные параметры : -8 -V %s
TOC извлечённого CD
     Трек |   Старт  | Длительность | Начальный сектор | Конечный сектор
    ---------------------------------------------------------------------
       1  |  0:00.00 |    3:28.32   |           0      |      15631
       2  |  3:28.32 |    3:23.07   |       15632      |      30863
       3  |  6:51.39 |    4:03.47   |       30864      |      49135
       4  | 10:55.11 |    3:57.36   |       49136      |      66946
       5  | 14:52.47 |    3:31.33   |       66947      |      82804
Характеристики диапазона извлечения и сообщения об ошибках
Выбранный диапазон
     Имя файла C:\Program Files\Exact Audio Copy\Flac\Pakt - Freiheit.wav
     Пиковый уровень 99.1 %
     Качество диапазона 100.0 %
     CRC теста 9D57AB1B
     CRC копии 9D57AB1B
     Копирование... OK
Ошибок не произошло
AccurateRip: сводка
Трек  1  нет в базе данных
Трек  2  нет в базе данных
Трек  3  нет в базе данных
Трек  4  нет в базе данных
Трек  5  нет в базе данных
Ни одного трека нет в базе AccurateRip
Конец отчёта
PAKT is: Chris Ruiz and Gio van Oli, two Electro-veterans that will probably ring a bell with most people close to the scene. PAKT is: darn stirring music probing the frontiers of EBM and Electro-Pop. PAKT is: heart, voice and mayhem. Right on time for their debut gig at the M’Era Luna Festival in August 2011, PAKT are dishing up their first single “Freiheit”, an electronic anthem that unleashes an onslaught of sly grins, massive bass, friendly aggression, ironic paroles and catchy melodies on a society that is going increasingly soft in the head. A dance-floor-compatible coup that encourages thinking and is perfect for letting go, singing along and going wild, “Freiheit” comes as a massive single version and in two clubby remixes. The “Freiheit”-single is topped-off with the mighty b-side smasher “Angriff.” It is time for a friendly takeover. It is time for … the PAKT! Don’t dream it, be it!
Правила, инструкции, FAQ!!!
Торрент  Добавлен [26 июн 2020, 21:08] Скачать торрент Магнет ссылка
Скачать торрент
[ Размер 10.8 КБ / Просмотров 14 ]

Статус
Проверен 
 
Размер  130.3 МБ
Приватный: Нет (DHT включён)
.torrent скачан  0
 


     Отправить личное сообщение
   
Страница 1 из 1
Показать сообщения за:  Поле сортировки  
Начать новую тему Ответить на тему


Сейчас этот форум просматривают: нет зарегистрированных пользователей и гости: 0


Вы не можете начинать темы
Вы не можете отвечать на сообщения
Вы не можете редактировать свои сообщения
Вы не можете удалять свои сообщения
Вы не можете добавлять вложения

Перейти:  
cron