Начать новую тему Ответить на тему
Статистика раздачи
Размер: 354.23 МБ | Добавлен: 26 июн 2020, 21:01 | Скачали: 0
Сидеров: 0  [0 байт/сек]    Личеров: 0  [0 байт/сек]
Пред. тема | След. тема 

Автор
Сообщение

СообщениеДобавлено: 26 июн 2020, 21:01 

Ответить с цитатой 

A.D.A.C. 8286 / Love, Hate 'N' Rage
Жанр: EBM
Страна-производитель диска: Germany
Год издания диска: 2009
Издатель (лейбл): Electric Tremor Dessau
Номер по каталогу: ETD 019 CD
Страна: Germany
Аудио кодек: FLAC (*.flac)
Тип рипа: image+.cue
Битрейт аудио: lossless
Продолжительность: 0:54:02.63
Источник (релизер): CD из личной коллекции.
Наличие сканов в содержимом раздачи: да
Треклист:
01. Full Tilt! 2:19
02. Fightnight 3:47
03. Love Hate Rage & Pearling Rain 3:20
04. Things I Hate 3:02
05. Sport Frei! 3:46
06. 3WW 3:52
07. Deepred Dream 3:40
08. Imitator 2:50
09. Slav Det Arbete 4:42
10. Keine Kontrolle 2:48
11. Sex Without Kisses 2:53
12. Stuntman Mike 3:00
13. Eisern Union 2:53
14. Los Horstos 10:38
Discogs
Код:
Exact Audio Copy V0.99 prebeta 5 from 4. May 2009
Отчёт EAC об извлечении, выполненном 4. января 2011, 10:23
A.D.A.C. 8286 / Love, Hate 'N' Rage
Дисковод: TSSTcorpCDDVDW TS-L632H   Adapter: 0  ID: 0
Режим чтения                 : Достоверность
Использование точного потока : Да
Отключение кэша аудио        : Да
Использование указателей C2  : Нет
Коррекция смещения при чтении                     : 6
Способность читать области Lead-in и Lead-out     : Нет
Заполнение пропущенных сэмплов тишиной            : Да
Удаление блоков с тишиной в начале и конце        : Нет
При вычислениях CRC использовались нулевые сэмплы : Да
Интерфейс                                         : Встроенный Win32-интерфейс для Win NT/2000
Выходной формат          : Пользовательский кодировщик
Выбранный битрейт        : 1024 kBit/s
Качество                 : Высокий
Добавление ID3-тэга      : Нет
Утилита сжатия           : C:\Program Files\Exact Audio Copy\FLAC\FLAC.EXE
Дополнительные параметры : -6 -V -T "ARTIST=%a" -T "TITLE=%t" -T "ALBUM=%g" -T "DATE=%y" -T "TRACKNUMBER=%n" -T "GENRE=%m" -T "COMMENT=%e" %s -o %d
TOC извлечённого CD
     Трек |   Старт  | Длительность | Начальный сектор | Конечный сектор
    ---------------------------------------------------------------------
       1  |  0:00.00 |    2:22.12   |           0      |      10661
       2  |  2:22.12 |    3:49.36   |       10662      |      27872
       3  |  6:11.48 |    3:22.08   |       27873      |      43030
       4  |  9:33.56 |    3:04.08   |       43031      |      56838
       5  | 12:37.64 |    3:48.08   |       56839      |      73946
       6  | 16:25.72 |    3:55.02   |       73947      |      91573
       7  | 20:20.74 |    3:42.08   |       91574      |     108231
       8  | 24:03.07 |    2:52.63   |      108232      |     121194
       9  | 26:55.70 |    4:44.08   |      121195      |     142502
      10  | 31:40.03 |    2:50.08   |      142503      |     155260
      11  | 34:30.11 |    2:55.50   |      155261      |     168435
      12  | 37:25.61 |    3:02.28   |      168436      |     182113
      13  | 40:28.14 |    2:55.59   |      182114      |     195297
      14  | 43:23.73 |   10:38.65   |      195298      |     243212
Характеристики диапазона извлечения и сообщения об ошибках
Выбранный диапазон
     Имя файла C:\Users\Алексей\Desktop\iPOD\A.D.A.C. 8286 - Love, Hate 'N' Rage.wav
     Пиковый уровень 100.0 %
     Качество диапазона 100.0 %
     CRC теста 6F1DD290
     CRC копии 6F1DD290
     Копирование... OK
Ошибок не произошло
AccurateRip: сводка
Трек  1  нет в базе данных
Трек  2  нет в базе данных
Трек  3  нет в базе данных
Трек  4  нет в базе данных
Трек  5  нет в базе данных
Трек  6  нет в базе данных
Трек  7  нет в базе данных
Трек  8  нет в базе данных
Трек  9  нет в базе данных
Трек 10  нет в базе данных
Трек 11  нет в базе данных
Трек 12  нет в базе данных
Трек 13  нет в базе данных
Трек 14  нет в базе данных
Ни одного трека нет в базе AccurateRip
Конец отчёта
Код:
REM GENRE EBM
REM DATE 2009
REM DISCID B60CAA0E
REM COMMENT "ExactAudioCopy v0.99pb5"
PERFORMER "A.D.A.C. 8286"
TITLE "Love, Hate 'N' Rage"
FILE "A.D.A.C. 8286 - Love, Hate 'N' Rage.flac" WAVE
  TRACK 01 AUDIO
    TITLE "Full Tilt!"
    PERFORMER "A.D.A.C. 8286"
    INDEX 01 00:00:00
  TRACK 02 AUDIO
    TITLE "Fightnight"
    PERFORMER "A.D.A.C. 8286"
    INDEX 00 02:20:12
    INDEX 01 02:22:12
  TRACK 03 AUDIO
    TITLE "Love Hate Rage & Pearling Rain"
    PERFORMER "A.D.A.C. 8286"
    INDEX 00 06:09:48
    INDEX 01 06:11:48
  TRACK 04 AUDIO
    TITLE "Things I Hate"
    PERFORMER "A.D.A.C. 8286"
    INDEX 00 09:31:56
    INDEX 01 09:33:56
  TRACK 05 AUDIO
    TITLE "Sport Frei!"
    PERFORMER "A.D.A.C. 8286"
    INDEX 00 12:35:64
    INDEX 01 12:37:64
  TRACK 06 AUDIO
    TITLE "3Ww"
    PERFORMER "A.D.A.C. 8286"
    INDEX 00 16:23:72
    INDEX 01 16:25:72
  TRACK 07 AUDIO
    TITLE "Deepred Dream"
    PERFORMER "A.D.A.C. 8286"
    INDEX 00 20:18:74
    INDEX 01 20:20:74
  TRACK 08 AUDIO
    TITLE "Imitator"
    PERFORMER "A.D.A.C. 8286"
    INDEX 00 24:01:07
    INDEX 01 24:03:07
  TRACK 09 AUDIO
    TITLE "Slav Det Arbete"
    PERFORMER "A.D.A.C. 8286"
    INDEX 00 26:53:70
    INDEX 01 26:55:70
  TRACK 10 AUDIO
    TITLE "Keine Kontrolle"
    PERFORMER "A.D.A.C. 8286"
    INDEX 00 31:38:03
    INDEX 01 31:40:03
  TRACK 11 AUDIO
    TITLE "Sex Without Kisses"
    PERFORMER "A.D.A.C. 8286"
    INDEX 00 34:28:11
    INDEX 01 34:30:11
  TRACK 12 AUDIO
    TITLE "Stuntman Mike"
    PERFORMER "A.D.A.C. 8286"
    INDEX 00 37:23:61
    INDEX 01 37:25:61
  TRACK 13 AUDIO
    TITLE "Eisern Union"
    PERFORMER "A.D.A.C. 8286"
    INDEX 00 40:26:14
    INDEX 01 40:28:14
  TRACK 14 AUDIO
    TITLE "Los Horstos"
    PERFORMER "A.D.A.C. 8286"
    INDEX 00 43:21:73
    INDEX 01 43:23:73
Код:
[url=https://fastpic.ru/view/14/2011/0223/feddb0fbf2d0d60e08d5c6f55fb9003f.jpg.html][img]http://i14.fastpic.ru/thumb/2011/0223/3f/feddb0fbf2d0d60e08d5c6f55fb9003f.jpeg[/img][/url][url=https://fastpic.ru/view/14/2011/0223/8b244c982c87be8e2560cac723f26cef.jpg.html][img]http://i14.fastpic.ru/thumb/2011/0223/ef/8b244c982c87be8e2560cac723f26cef.jpeg[/img][/url][url=https://fastpic.ru/view/14/2011/0223/2656a376a653edff9cbe67217e5e15b0.jpg.html][img]http://i14.fastpic.ru/thumb/2011/0223/b0/2656a376a653edff9cbe67217e5e15b0.jpeg[/img][/url][url=https://fastpic.ru/view/14/2011/0223/926f38dd0c29b08f4d1411fd8c69eb4a.jpg.html][img]http://i14.fastpic.ru/thumb/2011/0223/4a/926f38dd0c29b08f4d1411fd8c69eb4a.jpeg[/img][/url]
Выражаю благодарность kergarn`у за HQ scans!
Правила, инструкции, FAQ!!!
Торрент  Добавлен [26 июн 2020, 21:01] Скачать торрент Магнет ссылка
Скачать торрент
[ Размер 14.93 КБ / Просмотров 2 ]

Статус
Проверен 
 
Размер  354.23 МБ
Приватный: Нет (DHT включён)
.torrent скачан  0
 


     Отправить личное сообщение
   
Страница 1 из 1
Показать сообщения за:  Поле сортировки  
Начать новую тему Ответить на тему


Сейчас этот форум просматривают: нет зарегистрированных пользователей и гости: 0


Вы не можете начинать темы
Вы не можете отвечать на сообщения
Вы не можете редактировать свои сообщения
Вы не можете удалять свои сообщения
Вы не можете добавлять вложения

Перейти:  
cron