Начать новую тему Ответить на тему
Статистика раздачи
Размер: 1.44 ГБ | Добавлен: 26 мар 2019, 19:50 | Скачали: 0
Сидеров: 1  [0 байт/сек]    Личеров: 2  [0 байт/сек]
Пред. тема | След. тема 

Автор
Сообщение

СообщениеДобавлено: 26 мар 2019, 19:50 

Ответить с цитатой 

Pankow (DDR,ГДР) - Die Original Amigo-Alben (5 cd's Box Set)Жанр: East Rock/Pop Rock
Год выпуска диска: 2004
Производитель диска: Amiga(BMG Berlin Music) 94472
Аудио кодек: FLAC
Тип рипа: image+.cue
Битрейт аудио: lossless
Продолжительность: 5 CD's (total time details see below)
Трэклист:
#777Треклист:
01. Komm, Karlineken, komm (1:40)
02. Rock'n'Roll im Stadtpark (3:27)
03. Das Mдdchen und die Motte Lotte (5:09)
04. Ilse Bilse (3:17)
05. Die wundersame Geschichte von Gabi (5:25)
06. Das Lied von der See'nsucht (5:48)
07. Ich bin lieb (3:22)
08. Werkstattsong (4:39)
09. Inge Pawelczik (5:27)
Exact Audio Copy V0.99 prebeta 3 from 28. July 2007
Отчёт EAC об извлечении, выполненном 25. апреля 2008, 1:05
Pankow / Kille kille
Дисковод: _NEC DVD+-RW ND-6500A Adapter: 1 ID: 0
Режим чтения : Достоверность
Использование точного потока : Да
Отключение кэша аудио : Да
Использование указателей C2 : Нет
Коррекция смещения при чтении : 48
Способность читать области Lead-in и Lead-out : Нет
Заполнение пропущенных сэмплов тишиной : Да
Удаление блоков с тишиной в начале и конце : Нет
При вычислениях CRC использовались нулевые сэмплы : Да
Интерфейс : Установленный внешний ASPI-интерфейс
Выходной формат : Внутренние WAV-операции
Формат сэмплов : 44.100 Гц; 16 бит; стерео
TOC извлечённого CD
Трек | Старт | Длительность | Начальный сектор | Конечный сектор
---------------------------------------------------------------------
1 | 0:00.00 | 1:39.39 | 0 | 7463
2 | 1:39.39 | 3:27.30 | 7464 | 23018
3 | 5:06.69 | 5:08.68 | 23019 | 46186
4 | 10:15.62 | 3:17.34 | 46187 | 60995
5 | 13:33.21 | 5:25.12 | 60996 | 85382
6 | 18:58.33 | 5:47.47 | 85383 | 111454
7 | 24:46.05 | 3:21.49 | 111455 | 126578
8 | 28:07.54 | 4:39.27 | 126579 | 147530
9 | 32:47.06 | 5:26.68 | 147531 | 172048
Характеристики диапазона извлечения и сообщения об ошибках
Выбранный диапазон
Имя файла E:\System file\Образы CD\Готово\Pankow-1983-Kille kille\Pankow - Kille kille.wav
Пиковый уровень 100.0 %
Качество диапазона 99.9 %
CRC теста DC284504
CRC копии DC284504
Копирование... OK
Ошибок не произошло
AccurateRip: сводка
Трек 1 нет в базе данных
Трек 2 нет в базе данных
Трек 3 нет в базе данных
Трек 4 нет в базе данных
Трек 5 нет в базе данных
Трек 6 нет в базе данных
Трек 7 нет в базе данных
Трек 8 нет в базе данных
Трек 9 нет в базе данных
Ни одного трека нет в базе AccurateRip
Конец отчёта
#777Треклист:
01. Festrede (Teil 1) (1:53)
02. Die Schule ist aus (3:50)
03. Hoppe hoppe Reiter (1:14)
04. Der Aufstiegsspezialist (3:44)
05. Klappsmuehle (1:58)
06. Businessman (5:22)
07. Knast (1:29)
08. Familienpapa (4:52)
09. Mitropa (1:39)
10. Haenschen Mittelmass (5:02)
11. Trinkerheilanstalt (1:45)
12. Hans Negativ (3:56)
13. Festrede (Teil 2) (0:33)
14. Stille (3:34)
Exact Audio Copy V0.99 prebeta 3 from 28. July 2007
EAC extraction logfile from 13. December 2007, 16:01
Pankow / Hans im Gluck
Used drive : _NEC DVD+-RW ND-6500A Adapter: 1 ID: 0
Read mode : Secure
Utilize accurate stream : Yes
Defeat audio cache : Yes
Make use of C2 pointers : No
Read offset correction : 48
Overread into Lead-In and Lead-Out : No
Fill up missing offset samples with silence : Yes
Delete leading and trailing silent blocks : No
Null samples used in CRC calculations : Yes
Used interface : Native Win32 interface for Win NT & 2000
Used output format : User Defined Encoder
Selected bitrate : 768 kBit/s
Quality : High
Add ID3 tag : No
Command line compressor : C:\Program Files\Exact Audio Copy\FLAC\FLAC.EXE
Additional command line options : -6 -V -T "ARTIST=%a" -T "TITLE=%t" -T "ALBUM=%g" -T "DATE=%y" -T "TRACKNUMBER=%n" -T "GENRE=%m" -T "COMMENT=%e" %s -o %d
TOC of the extracted CD
Track | Start | Length | Start sector | End sector
---------------------------------------------------------
1 | 0:00.00 | 1:53.32 | 0 | 8506
2 | 1:53.32 | 3:49.55 | 8507 | 25736
3 | 5:43.12 | 1:14.26 | 25737 | 31312
4 | 6:57.38 | 3:44.02 | 31313 | 48114
5 | 10:41.40 | 1:58.21 | 48115 | 56985
6 | 12:39.61 | 5:21.42 | 56986 | 81102
7 | 18:01.28 | 1:28.50 | 81103 | 87752
8 | 19:30.03 | 4:52.01 | 87753 | 109653
9 | 24:22.04 | 1:39.15 | 109654 | 117093
10 | 26:01.19 | 5:02.18 | 117094 | 139761
11 | 31:03.37 | 1:44.47 | 139762 | 147608
12 | 32:48.09 | 3:56.18 | 147609 | 165326
13 | 36:44.27 | 0:32.67 | 165327 | 167793
14 | 37:17.19 | 3:34.06 | 167794 | 183849
15 | 43:23.25 | 0:04.00 | 195250 | 195549
Range status and errors
Selected range
Filename E:\System file\Образы CD\Готово\Pankow - Hans im Gluck.wav
Peak level 100.0 %
Range quality 100.0 %
Test CRC 530BF0CF
Copy CRC 530BF0CF
Copy OK
No errors occurred
End of status report
#777Треклист:
01. Keine Stars (2:13)
02. Die Band (4:20)
03. Wetten, du willst (4:13)
04. Isolde (3:42)
05. Doris (5:19)
06. Gut Nacht (3:16)
07. Nebel (5:08)
08. Er will anders sein (4:15)
09. Trübsal (2:07)
10. Das Zauberwort heißt Rock 'n' Roll (5:27)
Exact Audio Copy V0.99 prebeta 3 from 28. July 2007
EAC extraction logfile from 13. December 2007, 15:29
Pankow / KEINE STARS
Used drive : _NEC DVD+-RW ND-6500A Adapter: 1 ID: 0
Read mode : Secure
Utilize accurate stream : Yes
Defeat audio cache : Yes
Make use of C2 pointers : No
Read offset correction : 48
Overread into Lead-In and Lead-Out : No
Fill up missing offset samples with silence : Yes
Delete leading and trailing silent blocks : No
Null samples used in CRC calculations : Yes
Used interface : Native Win32 interface for Win NT & 2000
Used output format : User Defined Encoder
Selected bitrate : 768 kBit/s
Quality : High
Add ID3 tag : No
Command line compressor : C:\Program Files\Exact Audio Copy\FLAC\FLAC.EXE
Additional command line options : -6 -V -T "ARTIST=%a" -T "TITLE=%t" -T "ALBUM=%g" -T "DATE=%y" -T "TRACKNUMBER=%n" -T "GENRE=%m" -T "COMMENT=%e" %s -o %d
TOC of the extracted CD
Track | Start | Length | Start sector | End sector
---------------------------------------------------------
1 | 0:00.00 | 2:13.17 | 0 | 9991
2 | 2:13.17 | 4:19.42 | 9992 | 29458
3 | 6:32.59 | 4:12.65 | 29459 | 48423
4 | 10:45.49 | 3:42.30 | 48424 | 65103
5 | 14:28.04 | 5:19.11 | 65104 | 89039
6 | 19:47.15 | 3:16.30 | 89040 | 103769
7 | 23:03.45 | 5:08.10 | 103770 | 126879
8 | 28:11.55 | 4:15.14 | 126880 | 146018
9 | 32:26.69 | 2:06.42 | 146019 | 155510
10 | 34:33.36 | 5:26.61 | 155511 | 180021
Range status and errors
Selected range
Filename E:\System file\Образы CD\Готово\Pankow - KEINE STARS.wav
Peak level 100.0 %
Range quality 100.0 %
Test CRC 55D04EE1
Copy CRC 55D04EE1
Copy OK
No errors occurred
End of status report
#777Треклист:
01. Aufruhr in den Augen (3:54)
02. Einsam (3:09)
03. Langeweile (4:19)
04. Strassenlarm (3:16)
05. Marilyn (3:17)
06. Gib mir'n Zeichen (3:55)
07. Ich bin ich (4:26)
08. Der Ausreisser (4:01)
09. Du kriegst mich nicht (2:48)
10. Ich bin bei Dir (3:10)
11. Wieder auf der Strasse (4:35)
Exact Audio Copy V0.99 prebeta 3 from 28. July 2007
EAC extraction logfile from 13. December 2007, 17:29
Pankow / Aufruhr in den Augen
Used drive : _NEC DVD+-RW ND-6500A Adapter: 1 ID: 0
Read mode : Secure
Utilize accurate stream : Yes
Defeat audio cache : Yes
Make use of C2 pointers : No
Read offset correction : 48
Overread into Lead-In and Lead-Out : No
Fill up missing offset samples with silence : Yes
Delete leading and trailing silent blocks : No
Null samples used in CRC calculations : Yes
Used interface : Native Win32 interface for Win NT & 2000
Used output format : User Defined Encoder
Selected bitrate : 768 kBit/s
Quality : High
Add ID3 tag : No
Command line compressor : C:\Program Files\Exact Audio Copy\FLAC\FLAC.EXE
Additional command line options : -6 -V -T "ARTIST=%a" -T "TITLE=%t" -T "ALBUM=%g" -T "DATE=%y" -T "TRACKNUMBER=%n" -T "GENRE=%m" -T "COMMENT=%e" %s -o %d
TOC of the extracted CD
Track | Start | Length | Start sector | End sector
---------------------------------------------------------
1 | 0:00.00 | 3:54.24 | 0 | 17573
2 | 3:54.24 | 3:08.45 | 17574 | 31718
3 | 7:02.69 | 4:19.34 | 31719 | 51177
4 | 11:22.28 | 3:15.70 | 51178 | 65872
5 | 14:38.23 | 3:17.35 | 65873 | 80682
6 | 17:55.58 | 3:54.57 | 80683 | 98289
7 | 21:50.40 | 4:25.62 | 98290 | 118226
8 | 26:16.27 | 4:00.46 | 118227 | 136272
9 | 30:16.73 | 2:48.22 | 136273 | 148894
10 | 33:05.20 | 3:09.60 | 148895 | 163129
11 | 36:15.05 | 4:35.30 | 163130 | 183784
Range status and errors
Selected range
Filename E:\System file\Образы CD\Готово\Pankow - Aufruhr in den Augen.wav
Suspicious position 0:11:47
Suspicious position 0:11:49
Suspicious position 0:11:54
Peak level 99.9 %
Range quality 99.8 %
Test CRC 7A9CF664
Copy CRC 697C4156
Copy finished
There were errors
End of status report
#777Треклист:
01. Rede (0:45)
02. Ouvertьre (2:29)
03. Ich komm nicht hoch (3:20)
04. Frьhstьckswalzer (0:29)
05. Tempo (3:48)
06. Omnibuslied (2:51)
07. Werkstattsong (5:29)
08. Pause (3:26)
09. Sitzung (3:57)
10. Nach der Arbeit (5:43)
11. Freitag (5:41)
12. Discosong (4:11)
13. Nach der Disco (3:30)
14. Komm aus'm Arsch (5:27)
Exact Audio Copy V0.99 prebeta 3 from 28. July 2007
Отчёт EAC об извлечении, выполненном 25. апреля 2008, 0:19
Pankow / Paule Panke
Дисковод: _NEC DVD+-RW ND-6500A Adapter: 1 ID: 0
Режим чтения : Достоверность
Использование точного потока : Да
Отключение кэша аудио : Да
Использование указателей C2 : Нет
Коррекция смещения при чтении : 48
Способность читать области Lead-in и Lead-out : Нет
Заполнение пропущенных сэмплов тишиной : Да
Удаление блоков с тишиной в начале и конце : Нет
При вычислениях CRC использовались нулевые сэмплы : Да
Интерфейс : Установленный внешний ASPI-интерфейс
Выходной формат : Внутренние WAV-операции
Формат сэмплов : 44.100 Гц; 16 бит; стерео
TOC извлечённого CD
Трек | Старт | Длительность | Начальный сектор | Конечный сектор
---------------------------------------------------------------------
1 | 0:00.00 | 0:44.51 | 0 | 3350
2 | 0:44.51 | 2:29.20 | 3351 | 14545
3 | 3:13.71 | 3:20.21 | 14546 | 29566
4 | 6:34.17 | 0:28.40 | 29567 | 31706
5 | 7:02.57 | 3:48.11 | 31707 | 48817
6 | 10:50.68 | 2:50.46 | 48818 | 61613
7 | 13:41.39 | 5:29.06 | 61614 | 86294
8 | 19:10.45 | 3:26.37 | 86295 | 101781
9 | 22:37.07 | 3:57.09 | 101782 | 119565
10 | 26:34.16 | 5:43.33 | 119566 | 145323
11 | 32:17.49 | 5:40.71 | 145324 | 170894
12 | 37:58.45 | 4:11.07 | 170895 | 189726
13 | 42:09.52 | 3:30.32 | 189727 | 205508
14 | 45:40.09 | 5:27.27 | 205509 | 230060
Характеристики диапазона извлечения и сообщения об ошибках
Выбранный диапазон
Имя файла E:\System file\Образы CD\Готово\Pankow-1982-Paule Panke Live\Pankow - Paule Panke.wav
Пиковый уровень 100.0 %
Качество диапазона 99.9 %
CRC теста AEC69DFD
CRC копии AEC69DFD
Копирование... OK
Ошибок не произошло
AccurateRip: сводка
Трек 1 нет в базе данных
Трек 2 нет в базе данных
Трек 3 нет в базе данных
Трек 4 нет в базе данных
Трек 5 нет в базе данных
Трек 6 нет в базе данных
Трек 7 нет в базе данных
Трек 8 нет в базе данных
Трек 9 нет в базе данных
Трек 10 нет в базе данных
Трек 11 нет в базе данных
Трек 12 нет в базе данных
Трек 13 нет в базе данных
Трек 14 нет в базе данных
Ни одного трека нет в базе AccurateRip
Конец отчёта

Highly recommended !!!
Огромное спасибо - Antiguar, east и всем коллекционерам восточноевропейского рока за бесценный материал и возможность с ним ознакомиться!
http://rutracker.org/forum/viewtopic.php?t=1691393
TSA (Poland) The Best
http://rutracker.org/forum/viewtopic.php?t=1659164
Maanam (Poland) Simple Story
http://rutracker.org/forum/viewtopic.php?t=1697599
Olympic (Czechoslovakia) Zelva
http://rutracker.org/forum/viewtopic.php?t=1659261
Prinzip (DDR) The Best
http://rutracker.org/forum/viewtopic.php?t=1698768
Prinzip (DDR) Der Steher
http://rutracker.org/forum/viewtopic.php?t=1699574
Savana (Poland) Savana
http://rutracker.org/forum/viewtopic.php?t=1704608
Omega - 8 albums (remasters,deutsch, english versions)
http://rutracker.org/forum/viewtopic.php?t=1707925
Olympic The Best
http://rutracker.org/forum/viewtopic.php?t=1707596
Olympic 12 albums безграничное Спасибо KingGhidorah за этот релиз!!!!!!!!!!!!
http://rutracker.org/forum/viewtopic.php?t=1715454
Olympic 3 cd's english versions
http://rutracker.org/forum/viewtopic.php?t=1197696 KingGhidorah
Bardnodaj - Maugli (czechoslovakia)
http://rutracker.org/forum/viewtopic.php?t=815842 KingGhidorah
http://rutracker.org/forum/viewtopic.php?t=982171
Fermata (czechoslovakia)
http://rutracker.org/forum/viewtopic.php?t=836724 KingGhidorah
Blue Effect (Modry Efect) Czecoslovakia
http://rutracker.org/forum/viewtopic.php?t=1093223 KingGhidorah
Progres 2 czechoslovakia
http://rutracker.org/forum/viewtopic.php?t=999311 KingGhidorah
http://rutracker.org/forum/viewtopic.php?t=1018862
Dezo Ursiny Chechoslovakia
http://rutracker.org/forum/viewtopic.php?t=901298 KingGhidorah
Flamengo -Kure v Hodinkach czechoslovakia
http://rutracker.org/forum/viewtopic.php?t=875907 KingGhidorah
SBB - Anthology Poland
http://rutracker.org/forum/viewtopic.php?t=1725056
East (Hungary) Jatekok+Resek A Falon
http://rutracker.org/forum/viewtopic.php?t=1726105
Exodus 5 cd box poland
http://rutracker.org/forum/viewtopic.php?t=1733235
Omega - 3 rare english albums hungary
http://rutracker.org/forum/viewtopic.php?t=1739036
Kleeblatt Nr.22 (DDR,ГДР) - Hard & Heavy' (vynil rip 16/44.1)
http://rutracker.org/forum/viewtopic.php?t=1755853
Signal (Bulgaria) Gold Collection 3CD's box
http://rutracker.org/forum/viewtopic.php?t=1761114
East (HUngary) - 2 Albums (eng + live)
http://rutracker.org/forum/viewtopic.php?t=1766396
Щурците (Bulgaria) Антология 4cd's box
http://rutracker.org/forum/viewtopic.php?t=1771068
Signal (Bulgaria) 6 Albums
http://rutracker.org/forum/viewtopic.php?t=1780460
Dwa Plus Jeden (Poland) 8 albums
http://rutracker.org/forum/viewtopic.php?t=1792540
Стенли Bulgaria Най Доброто
http://rutracker.org/forum/viewtopic.php?t=1809605
Bajm (Poland) Ballady 2
http://rutracker.org/forum/viewtopic.php?p=21536234&rnd=1881415606#21536234
Omega (Hungary) Red Star from Hungary
http://rutracker.org/forum/viewtopic.php?t=1847651
Omega (Hungary) - Osszes Koncertfelvetele (Kisstadion'77)
http://rutracker.org/forum/viewtopic.php?t=1859060
Omega (Hungary) - Omega Koncert: Nepstadion'94 CD 1
http://rutracker.org/forum/viewtopic.php?p=21884096&rnd=348714156#21884096
Kombi (Poland) - 6 albums
http://rutracker.org/forum/viewtopic.php?p=22034217&rnd=2084982985#22034217
Omega (Hungary) - Omega Koncert: Nepstadion'94 Szarazblokk
http://rutracker.org/forum/viewtopic.php?t=1885286&spmode=full
Perfect (Poland) - 9 albums
http://rutracker.org/forum/viewtopic.php?p=21974160&a...6919684#21974160
Various (Hungary) - 1.2.3.Start Vol 1&2
http://rutracker.org/forum/viewtopic.php?t=1895114
Edda Muvek (Hungary) 18 albums
http://rutracker.org/forum/viewtopic.php?t=1903591
TSA (Poland) 8 albums
http://rutracker.org/forum/viewtopic.php?t=1909414
Dinamit (Hungary, ex Skorpio) - Mindorokke
следите за любым постом (обновления регулярно),продолжение следует...
В курилке открылся новый пост по east року, где мы попробуем систематизировать и собрать вместе ссылки на все раздачи данного направления. Просьба ко всем, у кого есть раздачи ист рока присылать в пост данные по этим раздачам и указывать в своих постах ссылки на тему в курилке.
Заранее спасибо!!!
с Уважением lomik70
Доп. информация: Вашему вниманию предлагается культовая немецкая группа, сформированная в Берлине в 1981 году. Благополучно существует до сих пор, чуть позже, загружу вам еще альбомов 5 90 и 00 годов. Стиль, от некоторой приволненности 80 до классического бита двутысячных)
Не забывайте о комментах и спасибо!
Enjoy)))
Правила, инструкции, FAQ!!!
Торрент  Добавлен [26 мар 2019, 19:50] Скачать торрент Магнет ссылка
Скачать торрент
[ Размер 18.43 КБ / Просмотров 10 ]

Статус
Проверен 
 
Размер  1.44 ГБ
Приватный: Нет (DHT включён)
.torrent скачан  0
 


     Отправить личное сообщение
   
Страница 1 из 1
Показать сообщения за:  Поле сортировки  
Начать новую тему Ответить на тему


Сейчас этот форум просматривают: нет зарегистрированных пользователей и гости: 0


Вы не можете начинать темы
Вы не можете отвечать на сообщения
Вы не можете редактировать свои сообщения
Вы не можете удалять свои сообщения
Вы не можете добавлять вложения

Перейти:  
cron