Начать новую тему Ответить на тему
Статистика раздачи
Размер: 778.69 МБ | Добавлен: 07 янв 2020, 21:37 | Скачали: 0
Сидеров: 0  [0 байт/сек]    Личеров: 0  [0 байт/сек]
Пред. тема | След. тема 

Автор
Сообщение

СообщениеДобавлено: 07 янв 2020, 21:37 

Ответить с цитатой 

Scientist - Scientist Rids The World Of The Evil Curse Of The Vampires
Жанр: Dub
Носитель: LP
Год выпуска: 1981
Лейбл: Greensleeves GREL 25
Страна-производитель: UK
Аудио кодек: FLAC
Тип рипа: tracks+.cue
Формат записи: 96/32
Формат раздачи: 96/24
Продолжительность: 00:38:19
Треклист:
1. The Voodoo Curse
2. Dance of the Vampires
3. Blood On His Lips
4. Cry Of The Werewolf
5. The Mummy Shroud
6. The Corpse Rises
7. Night Of The Living Dead
8. Your Teeth In My Neck
9. Plague Of Zombies
10. Ghost Of Frankenstein
Источник оцифровки: третьим лицом
Код класса состояния винила: Неизвестно
Устройство воспроизведения: Heybrook TT2
Головка звукоснимателя: Ortofon MC25FL
Предварительный усилитель: Denon PMA 8500
АЦП: ESI Systems Juli@ A/D
Программа-оцифровщик: Adobe Audition 1.5
Обработка: Manual declick and deglitch
foobar2000 1.4.2 / Dynamic Range Meter 1.1.1
log date: 2019-03-09 19:21:23
--------------------------------------------------------------------------------
Analyzed: Scientist / Scientist Rids the World of the Evil Curse of the Vampires
--------------------------------------------------------------------------------
DR Peak RMS Duration Track
--------------------------------------------------------------------------------
DR15 -0.42 dB -18.27 dB 3:55 01-The Voodoo Curse
DR14 0.00 dB -17.81 dB 3:30 02-Dance of the Vampires
DR16 -1.42 dB -19.21 dB 3:04 03-Blood on His Lips
DR16 -1.89 dB -20.06 dB 4:30 04-Cry of the Werewolf
DR14 -1.95 dB -18.06 dB 4:34 05-The Mummy's Shroud
DR13 -1.89 dB -18.47 dB 3:32 06-The Corpse Rises
DR16 -1.98 dB -21.19 dB 4:15 07-Night of the Living Dead
DR15 -0.74 dB -17.73 dB 4:46 08-Your Teeth in My Neck
DR15 -2.09 dB -20.20 dB 2:53 09-Plague of Zombies
DR12 -1.80 dB -16.23 dB 3:24 10-Ghost of Frankenstein
--------------------------------------------------------------------------------
Number of tracks: 10
Official DR value: DR15
Samplerate: 96000 Hz
Channels: 2
Bits per sample: 24
Bitrate: 2736 kbps
Codec: FLAC
================================================================================
Правила, инструкции, FAQ!!!
Торрент  Добавлен [07 янв 2020, 21:37] Скачать торрент Магнет ссылка
Скачать торрент
[ Размер 17.06 КБ / Просмотров 12 ]

Статус
Проверен 
 
Размер  778.69 МБ
Приватный: Нет (DHT включён)
.torrent скачан  0
 


     Отправить личное сообщение
   
Страница 1 из 1
Показать сообщения за:  Поле сортировки  
Начать новую тему Ответить на тему


Сейчас этот форум просматривают: нет зарегистрированных пользователей и гости: 0


Вы не можете начинать темы
Вы не можете отвечать на сообщения
Вы не можете редактировать свои сообщения
Вы не можете удалять свои сообщения
Вы не можете добавлять вложения

Перейти:  
cron