Начать новую тему Ответить на тему
Статистика раздачи
Размер: 767.57 МБ | Добавлен: 07 янв 2020, 22:01 | Скачали: 0
Сидеров: 1  [0 байт/сек]    Личеров: 0  [0 байт/сек]
Пред. тема | След. тема 

Автор
Сообщение

СообщениеДобавлено: 07 янв 2020, 22:01 

Ответить с цитатой 

Rico Rodriguez - Wareika Dub
Жанр: Dub
Носитель: LP
Год выпуска: 1977
Лейбл: Ghetto Rockers - PRE LP 1
Страна-производитель: UK
Аудио кодек: FLAC
Тип рипа: tracks+.cue
Формат записи: 32/96
Формат раздачи: 24/96
Продолжительность: 00:39:59
Треклист:
Side 1
A1 - This Day Dub
A2 - Gunga Din Dub
A3 - Africa Dub
A4 - Lumumba Dub
Side 2
B1 - Dial Africa Dub
B2 - Man From Wareika Dub
B3 - Over The Mountain Dub
B4 - Rasta Dub
B5 - Ramble Dub
Companies, etc.
Pressed By - Island Records Manufacturing Ltd
Notes
A promotional pre-release dub version of Rico - Man From Wareika released as 'Wareika Dub' in a plain stamped card sleeve.
Barcode and Other Identifiers
Matrix / Runout (Runout Side A): I-5 PRE LP 1 A2 EG
Matrix / Runout (Runout Side B): I-3 PRE LP 1 B1 EG
Источник оцифровки: третьим лицом
Код класса состояния винила: VG+
Устройство воспроизведения: Technics SL 1210 MKII
Головка звукоснимателя: Denon DL304 M/C
Предварительный усилитель: Cambridge Audio AZUR640P M/C
АЦП: M-Audio Profire 610
Программа-оцифровщик: Adobe audition 3.0
Обработка: de-clicking in Adobe Audition
Доп. информация:
--------------------------------------------------------------------------------
Analyzed: Rico Rodriguez / Warrika Dub
--------------------------------------------------------------------------------
DR Peak RMS Duration Track
--------------------------------------------------------------------------------
DR17 -0.14 dB -18.90 dB 5:46 ?-Rico - Man From Wareika Dub A1 This Day Dub
DR14 -2.21 dB -19.45 dB 4:29 ?-Rico - Man From Wareika Dub A2 Ramble Dub
DR13 -3.10 dB -18.45 dB 3:56 ?-Rico - Man From Wareika Dub A3 Lumumba Dub
DR16 -2.25 dB -20.48 dB 5:33 ?-Rico - Man From Wareika Dub A4 Africa Dub
DR15 -0.80 dB -18.87 dB 4:31 ?-Rico - Man From Wareika Dub B1 Man From Wareika
Dub
DR15 -2.33 dB -20.78 dB 3:53 ?-Rico - Man From Wareika Dub B2 Rasta Dub
DR15 -0.98 dB -19.97 dB 4:32 ?-Rico - Man From Wareika Dub B3 Over The
Mountain Dub
DR14 -2.54 dB -19.07 dB 3:39 ?-Rico - Man From Wareika Dub B4 Gunga Dub
DR15 -0.16 dB -18.35 dB 3:41 ?-Rico - Man From Wareika Dub B5 Dial Africa Dub
--------------------------------------------------------------------------------
Number of tracks: 9
Official DR value: DR15
Samplerate: 96000 Hz
Channels: 2
Bits per sample: 24
Bitrate: 2668 kbps
Codec: FLAC
================================================================================
Правила, инструкции, FAQ!!!
Торрент  Добавлен [07 янв 2020, 22:01] Скачать торрент Магнет ссылка
Скачать торрент
[ Размер 16.33 КБ / Просмотров 17 ]

Статус
Проверен 
 
Размер  767.57 МБ
Приватный: Нет (DHT включён)
.torrent скачан  0
 


     Отправить личное сообщение
   
Страница 1 из 1
Показать сообщения за:  Поле сортировки  
Начать новую тему Ответить на тему


Сейчас этот форум просматривают: нет зарегистрированных пользователей и гости: 0


Вы не можете начинать темы
Вы не можете отвечать на сообщения
Вы не можете редактировать свои сообщения
Вы не можете удалять свои сообщения
Вы не можете добавлять вложения

Перейти:  
cron